<?xml version="1.0" standalone="no"?>
<!DOCTYPE svg PUBLIC "-//W3C//DTD SVG 1.1//EN" "http://www.w3.org/Graphics/SVG/1.1/DTD/svg11.dtd" >
<svg xmlns="http://www.w3.org/2000/svg">
<metadata>Generated by IcoMoon</metadata>
<defs>
<font id="dripicons" horiz-adv-x="1024">
<font-face units-per-em="1024" ascent="960" descent="-64" />
<missing-glyph horiz-adv-x="1024" />
<glyph unicode="&#x20;" horiz-adv-x="512" d="" />
<glyph unicode="&#xe900;" glyph-name="alarm" d="M917.148 623.861c12.243 11.13 61.217 56.765 62.33 124.661 1.113 48.974-22.261 93.496-69.009 133.565 0 0-1.113 1.113-1.113 1.113-55.652 43.409-104.626 45.635-135.791 40.070-54.539-10.017-91.27-48.974-106.852-70.122-48.974 18.922-101.287 28.939-154.713 28.939s-105.739-10.017-153.6-26.713c-16.696 21.148-52.313 60.104-106.852 70.122-31.165 5.565-80.139 3.339-135.791-40.070 0 0-1.113-1.113-1.113-1.113-47.861-42.296-71.235-86.817-70.122-135.791 1.113-67.896 48.974-113.53 62.33-124.661-27.826-57.878-42.296-122.435-42.296-191.443 0-112.417 42.296-215.93 111.304-294.957-1.113-1.113-1.113-1.113-2.226-2.226l-64.557-96.835c-13.357-20.035-7.791-47.861 12.243-61.217 7.791-5.565 16.696-7.791 24.487-7.791 14.47 0 28.939 6.678 36.73 20.035l57.878 86.817c75.687-57.878 169.183-92.383 271.583-92.383s197.009 34.504 272.696 93.496l58.991-87.93c8.904-13.357 22.261-20.035 36.73-20.035 8.904 0 16.696 2.226 24.487 7.791 20.035 13.357 25.6 41.183 12.243 61.217l-64.557 96.835c-1.113 1.113-2.226 2.226-3.339 3.339 67.896 79.026 109.078 181.426 109.078 293.843 1.113 69.009-13.357 133.565-41.183 191.443zM789.148 836.452c18.922 3.339 40.070-4.452 63.443-22.261 25.6-22.261 37.843-43.409 37.843-64.557 0-18.922-11.13-36.73-21.148-47.861-33.391 44.522-74.574 81.252-121.322 111.304 11.13 11.13 25.6 21.148 41.183 23.374zM133.565 749.635c0 21.148 12.243 42.296 37.843 64.557 23.374 17.809 44.522 25.6 63.443 22.261 15.583-3.339 30.052-13.357 41.183-23.374-46.748-28.939-87.93-66.783-121.322-111.304-8.904 12.243-21.148 28.939-21.148 47.861zM512 72.904c-198.122 0-358.4 161.391-358.4 359.513s160.278 360.626 358.4 360.626 358.4-161.391 358.4-359.513-160.278-360.626-358.4-360.626zM673.391 334.47c17.809-17.809 17.809-45.635 0-63.443-8.904-8.904-20.035-13.357-31.165-13.357s-22.261 4.452-31.165 13.357l-130.226 130.226c-7.791 8.904-13.357 20.035-13.357 31.165v240.417c0 24.487 20.035 44.522 44.522 44.522s44.522-20.035 44.522-44.522v-221.496l116.87-116.87z" />
<glyph unicode="&#xe901;" glyph-name="align-center" d="M912.696 759.652h-801.391c-24.487 0-44.522 20.035-44.522 44.522s20.035 44.522 44.522 44.522h801.391c24.487 0 44.522-20.035 44.522-44.522s-20.035-44.522-44.522-44.522zM786.922 565.983c0 24.487-20.035 44.522-44.522 44.522h-460.8c-24.487 0-44.522-20.035-44.522-44.522s20.035-44.522 44.522-44.522h460.8c24.487 0 44.522 20.035 44.522 44.522zM854.817 328.904c0 24.487-20.035 44.522-44.522 44.522h-596.591c-24.487 0-44.522-20.035-44.522-44.522s20.035-44.522 44.522-44.522h596.591c24.487 0 44.522 20.035 44.522 44.522zM936.070 91.826c0 24.487-20.035 44.522-44.522 44.522h-759.096c-24.487 0-44.522-20.035-44.522-44.522s20.035-44.522 44.522-44.522h757.983c25.6 0 45.635 20.035 45.635 44.522z" />
<glyph unicode="&#xe902;" glyph-name="align-justify" d="M912.696 759.652h-801.391c-24.487 0-44.522 20.035-44.522 44.522s20.035 44.522 44.522 44.522h801.391c24.487 0 44.522-20.035 44.522-44.522s-20.035-44.522-44.522-44.522zM957.217 565.983c0 24.487-20.035 44.522-44.522 44.522h-801.391c-24.487 0-44.522-20.035-44.522-44.522s20.035-44.522 44.522-44.522h801.391c24.487 0 44.522 20.035 44.522 44.522zM957.217 328.904c0 24.487-20.035 44.522-44.522 44.522h-801.391c-24.487 0-44.522-20.035-44.522-44.522s20.035-44.522 44.522-44.522h801.391c24.487 0 44.522 20.035 44.522 44.522zM556.522 91.826c0 24.487-20.035 44.522-44.522 44.522h-397.357c-24.487 0-44.522-20.035-44.522-44.522s20.035-44.522 44.522-44.522h397.357c24.487 0 44.522 20.035 44.522 44.522z" />
<glyph unicode="&#xe903;" glyph-name="align-left" d="M912.696 759.652h-801.391c-24.487 0-44.522 20.035-44.522 44.522s20.035 44.522 44.522 44.522h801.391c24.487 0 44.522-20.035 44.522-44.522s-20.035-44.522-44.522-44.522zM616.626 565.983c0 24.487-20.035 44.522-44.522 44.522h-460.8c-24.487 0-44.522-20.035-44.522-44.522s20.035-44.522 44.522-44.522h460.8c24.487 0 44.522 20.035 44.522 44.522zM752.417 328.904c0 24.487-20.035 44.522-44.522 44.522h-596.591c-24.487 0-44.522-20.035-44.522-44.522s20.035-44.522 44.522-44.522h596.591c24.487 0 44.522 20.035 44.522 44.522zM917.148 91.826c0 24.487-20.035 44.522-44.522 44.522h-757.983c-24.487 0-44.522-20.035-44.522-44.522s20.035-44.522 44.522-44.522h757.983c24.487 0 44.522 20.035 44.522 44.522z" />
<glyph unicode="&#xe904;" glyph-name="align-right" d="M912.696 759.652h-801.391c-24.487 0-44.522 20.035-44.522 44.522s20.035 44.522 44.522 44.522h801.391c24.487 0 44.522-20.035 44.522-44.522s-20.035-44.522-44.522-44.522zM957.217 565.983c0 24.487-20.035 44.522-44.522 44.522h-460.8c-24.487 0-44.522-20.035-44.522-44.522s20.035-44.522 44.522-44.522h460.8c24.487 0 44.522 20.035 44.522 44.522zM957.217 328.904c0 24.487-20.035 44.522-44.522 44.522h-596.591c-24.487 0-44.522-20.035-44.522-44.522s20.035-44.522 44.522-44.522h596.591c24.487 0 44.522 20.035 44.522 44.522zM953.878 91.826c0 24.487-20.035 44.522-44.522 44.522h-757.983c-24.487 0-44.522-20.035-44.522-44.522s20.035-44.522 44.522-44.522h757.983c24.487 0 44.522 20.035 44.522 44.522z" />
<glyph unicode="&#xe905;" glyph-name="anchor" d="M969.461 366.748c-8.904 10.017-21.148 14.47-34.504 14.47h-143.583c-24.487 0-44.522-20.035-44.522-44.522s20.035-44.522 44.522-44.522h86.817c-44.522-144.696-170.296-247.096-321.67-264.904v591.026c73.461 20.035 128 87.93 128 168.070 0 95.722-76.8 173.635-172.522 173.635s-172.522-77.913-172.522-173.635c0-80.139 50.087-148.035 128-168.070v-591.026c-155.826 17.809-277.148 120.209-321.67 264.904h86.817c24.487 0 44.522 20.035 44.522 44.522s-20.035 44.522-44.522 44.522h-143.583c-13.357 0-25.6-4.452-34.504-14.47s-12.243-22.261-10.017-35.617c38.957-229.287 235.965-395.13 467.478-395.13s428.522 165.843 466.365 395.13c2.226 13.357-1.113 25.6-8.904 35.617zM428.522 786.365c0 46.748 37.843 84.591 83.478 84.591 46.748 0 83.478-37.843 83.478-84.591s-37.843-84.591-83.478-84.591c-46.748 0-83.478 37.843-83.478 84.591z" />
<glyph unicode="&#xe906;" glyph-name="archive" d="M174.748 715.13c0 24.487 20.035 44.522 44.522 44.522h584.348c24.487 0 44.522-20.035 44.522-44.522s-20.035-44.522-44.522-44.522h-584.348c-24.487 0-44.522 20.035-44.522 44.522zM292.73 826.435h438.539c21.148 0 38.957 17.809 38.957 38.957s-17.809 38.957-38.957 38.957h-438.539c-21.148 0-38.957-17.809-38.957-38.957s17.809-38.957 38.957-38.957zM1024 663.93v-121.322c0 0 0 0 0 0s0 0 0 0 0 0 0 0 0 0 0 0c0-4.452-1.113-8.904-2.226-12.243l-142.47-517.565c-5.565-18.922-22.261-32.278-42.296-32.278h-652.243c-20.035 0-37.843 13.357-43.409 33.391l-139.13 516.452c-1.113 2.226-1.113 4.452-2.226 6.678 0 2.226 0 4.452 0 6.678v120.209c0 24.487 20.035 44.522 44.522 44.522s44.522-20.035 44.522-44.522v-82.365h845.913v82.365c0 24.487 20.035 44.522 44.522 44.522s44.522-20.035 44.522-44.522zM920.487 492.522h-818.087l115.757-422.957h584.348l117.983 422.957zM380.661 269.913h262.678c24.487 0 44.522 20.035 44.522 44.522s-20.035 44.522-44.522 44.522h-262.678c-24.487 0-44.522-20.035-44.522-44.522s20.035-44.522 44.522-44.522z" />
<glyph unicode="&#xe907;" glyph-name="arrow-down" d="M887.096 407.93c-6.678 15.583-23.374 28.939-41.183 28.939h-144.696v411.826c0 24.487-25.6 44.522-50.087 44.522h-278.261c-24.487 0-50.087-20.035-50.087-44.522v-411.826h-144.696c-17.809 0-34.504-13.357-41.183-28.939-6.678-16.696-3.339-36.73 8.904-48.974l333.913-341.704c8.904-8.904 20.035-13.357 32.278-13.357s23.374 4.452 32.278 13.357l333.913 341.704c12.243 12.243 15.583 32.278 8.904 48.974zM512 115.2l-228.174 232.626h89.043c24.487 0 38.957 15.583 38.957 40.070v416.278h200.348v-416.278c0-24.487 14.47-40.070 38.957-40.070h89.043l-228.174-232.626z" />
<glyph unicode="&#xe908;" glyph-name="arrow-left" d="M912.696 637.217h-411.826v144.696c0 17.809-13.357 34.504-28.939 41.183-16.696 6.678-36.73 3.339-48.974-8.904l-341.704-333.913c-8.904-8.904-14.47-20.035-14.47-32.278s4.452-23.374 13.357-32.278l340.591-333.913c8.904-7.791 20.035-12.243 31.165-12.243 5.565 0 13.357 1.113 18.922 3.339 16.696 6.678 28.939 23.374 28.939 41.183v144.696h411.826c24.487 0 44.522 25.6 44.522 50.087v278.261c1.113 24.487-18.922 50.087-43.409 50.087zM868.174 347.826h-416.278c-24.487 0-40.070-14.47-40.070-38.957v-89.043l-232.626 228.174 232.626 228.174v-89.043c0-24.487 15.583-38.957 40.070-38.957h416.278v-200.348z" />
<glyph unicode="&#xe909;" glyph-name="arrow-right" d="M943.861 480.278l-340.591 333.913c-13.357 12.243-34.504 16.696-50.087 8.904-16.696-6.678-30.052-23.374-30.052-41.183v-144.696h-411.826c-24.487 0-44.522-25.6-44.522-50.087v-278.261c0-24.487 20.035-50.087 44.522-50.087h411.826v-144.696c0-17.809 13.357-34.504 28.939-41.183 5.565-2.226 12.243-3.339 17.809-3.339 11.13 0 23.374 4.452 31.165 12.243l340.591 333.913c8.904 8.904 13.357 20.035 13.357 32.278s-2.226 23.374-11.13 32.278zM612.174 219.826v89.043c0 24.487-15.583 38.957-40.070 38.957h-416.278v200.348h416.278c24.487 0 40.070 14.47 40.070 38.957v89.043l232.626-228.174-232.626-228.174z" />
<glyph unicode="&#xe90a;" glyph-name="arrow-thin-down" d="M821.426 315.548l-278.261-277.148c-8.904-8.904-20.035-13.357-31.165-13.357s-22.261 4.452-31.165 13.357l-278.261 277.148c-17.809 17.809-17.809 45.635 0 63.443s45.635 17.809 63.443 0l201.461-202.574v650.017c0 24.487 20.035 44.522 44.522 44.522s44.522-20.035 44.522-44.522v-650.017l202.574 201.461c17.809 17.809 45.635 17.809 63.443 0 16.696-16.696 16.696-44.522-1.113-62.33z" />
<glyph unicode="&#xe90b;" glyph-name="arrow-thin-left" d="M934.957 448c0-24.487-20.035-44.522-44.522-44.522h-650.017l201.461-202.574c17.809-17.809 17.809-45.635 0-63.443-7.791-7.791-18.922-12.243-31.165-12.243-11.13 0-23.374 4.452-31.165 13.357l-277.148 278.261c-17.809 17.809-17.809 45.635 0 62.33l277.148 278.261c17.809 17.809 45.635 17.809 63.443 0s17.809-45.635 0-63.443l-202.574-201.461h650.017c24.487 0 44.522-20.035 44.522-44.522z" />
<glyph unicode="&#xe90c;" glyph-name="arrow-thin-right" d="M921.6 416.835l-277.148-278.261c-8.904-8.904-20.035-13.357-31.165-13.357s-22.261 4.452-31.165 13.357c-17.809 17.809-17.809 45.635 0 63.443l201.461 201.461h-650.017c-24.487 0-44.522 20.035-44.522 44.522s20.035 44.522 44.522 44.522h650.017l-202.574 202.574c-17.809 17.809-17.809 45.635 0 63.443s45.635 17.809 63.443 0l277.148-278.261c17.809-17.809 17.809-46.748 0-63.443z" />
<glyph unicode="&#xe90d;" glyph-name="arrow-thin-up" d="M821.426 517.009c-8.904-8.904-20.035-13.357-31.165-13.357s-22.261 4.452-31.165 13.357l-202.574 202.574v-650.017c0-24.487-20.035-44.522-44.522-44.522s-44.522 20.035-44.522 44.522v650.017l-202.574-202.574c-17.809-17.809-45.635-17.809-63.443 0s-17.809 45.635 0 63.443l278.261 277.148c17.809 17.809 45.635 17.809 62.33 0l278.261-277.148c18.922-17.809 18.922-45.635 1.113-63.443z" />
<glyph unicode="&#xe90e;" glyph-name="arrow-up" d="M878.191 539.27l-333.913 340.591c-8.904 8.904-20.035 13.357-32.278 13.357s-23.374-4.452-32.278-13.357l-333.913-340.591c-12.243-12.243-16.696-34.504-8.904-50.087 6.678-16.696 23.374-28.939 41.183-28.939h144.696v-411.826c0-24.487 25.6-44.522 50.087-44.522h278.261c24.487 0 50.087 20.035 50.087 44.522v410.713h144.696c17.809 0 34.504 13.357 41.183 28.939 6.678 16.696 3.339 37.843-8.904 51.2zM651.13 548.174c-24.487 0-38.957-15.583-38.957-40.070v-416.278h-200.348v416.278c0 24.487-14.47 40.070-38.957 40.070h-89.043l228.174 232.626 228.174-232.626h-89.043z" />
<glyph unicode="&#xe90f;" glyph-name="article" d="M845.913 937.739h-667.826c-24.487 0-44.522-20.035-44.522-44.522v-890.435c0-24.487 20.035-44.522 44.522-44.522h667.826c24.487 0 44.522 20.035 44.522 44.522v890.435c0 24.487-20.035 44.522-44.522 44.522zM801.391 47.304h-578.783v801.391h578.783v-801.391zM333.913 208.696c0 21.148 17.809 38.957 38.957 38.957h264.904c21.148 0 38.957-17.809 38.957-38.957s-16.696-38.957-38.957-38.957h-264.904c-21.148 0-38.957 17.809-38.957 38.957zM333.913 364.522c0 21.148 17.809 38.957 38.957 38.957h264.904c21.148 0 38.957-17.809 38.957-38.957s-16.696-38.957-38.957-38.957h-264.904c-21.148 0-38.957 17.809-38.957 38.957zM678.957 687.304c0 21.148-17.809 38.957-38.957 38.957h-267.13c-21.148 0-38.957-17.809-38.957-38.957v-155.826c0-21.148 17.809-38.957 38.957-38.957h267.13c21.148 0 38.957 17.809 38.957 38.957v155.826zM411.826 648.348h189.217v-77.913h-189.217v77.913z" />
<glyph unicode="&#xe910;" glyph-name="backspace" d="M1024 452.452v-197.009c0-26.713-16.696-48.974-44.522-48.974s-44.522 22.261-44.522 48.974v146.922h-760.209l113.53-112.417c18.922-18.922 17.809-50.087-2.226-70.122-10.017-10.017-23.374-14.47-36.73-14.47-12.243 0-25.6 4.452-35.617 14.47l-200.348 197.009c-7.791 8.904-13.357 22.261-13.357 35.617s5.565 25.6 14.47 34.504l199.235 197.009c18.922 18.922 51.2 18.922 70.122 0s18.922-50.087-1.113-70.122l-113.53-112.417h803.617c13.357 0 27.826-5.565 36.73-14.47s14.47-22.261 14.47-34.504z" />
<glyph unicode="&#xe911;" glyph-name="basket" d="M979.478 637.217h-122.435c0 0-1.113 3.339-1.113 4.452l-210.365 257.113c-15.583 18.922-43.409 22.261-62.33 6.678s-22.261-45.635-6.678-64.557l165.843-203.687h-460.8l165.843 203.687c15.583 18.922 13.357 47.861-6.678 63.443-18.922 15.583-46.748 13.357-62.33-5.565l-210.365-258.226c0-1.113-1.113-3.339-1.113-3.339h-122.435c-24.487 0-44.522-15.583-44.522-40.070v-166.957c0-24.487 20.035-48.974 44.522-48.974h14.47l83.478-338.365c8.904-38.957 43.409-62.33 83.478-62.33h572.104c40.070 0 73.461 24.487 83.478 62.33l83.478 338.365h14.47c24.487 0 44.522 24.487 44.522 48.974v166.957c0 24.487-20.035 40.070-44.522 40.070zM89.043 548.174h845.913v-77.913h-845.913v77.913zM795.826 69.565h-567.652l-77.913 311.652h723.478l-77.913-311.652z" />
<glyph unicode="&#xe912;" glyph-name="basketball" d="M512 960c-282.713 0-512-229.287-512-512s229.287-512 512-512 512 229.287 512 512-229.287 512-512 512zM834.783 175.304c-28.939 26.713-76.8 82.365-94.609 168.070 86.817 12.243 149.148 30.052 190.33 44.522-11.13-79.026-45.635-152.487-95.722-212.591zM93.496 389.009c41.183-14.47 103.513-32.278 190.33-44.522-16.696-85.704-65.67-142.47-94.609-168.070-50.087 58.991-84.591 132.452-95.722 212.591zM163.617 688.417c35.617-37.843 112.417-133.565 123.548-254.887-107.965 16.696-171.409 41.183-197.009 52.313 7.791 74.574 33.391 143.583 73.461 202.574zM932.73 485.843c-25.6-11.13-87.93-36.73-197.009-52.313 11.13 120.209 89.043 217.043 123.548 254.887 41.183-58.991 66.783-128 73.461-202.574zM646.678 423.513c-27.826-2.226-57.878-3.339-90.157-4.452v449.67c94.609-10.017 179.2-51.2 244.87-112.417-41.183-43.409-148.035-169.183-154.713-332.8zM467.478 417.948c-32.278 1.113-62.33 2.226-90.157 4.452-7.791 164.73-114.643 289.391-155.826 332.8 65.67 61.217 150.261 102.4 244.87 112.417v-449.67zM371.757 334.47c30.052-2.226 61.217-4.452 95.722-4.452v-301.635c-80.139 7.791-153.6 38.957-214.817 85.704 40.070 37.843 100.174 110.191 119.096 220.383zM556.522 328.904c33.391 1.113 65.67 2.226 95.722 4.452 20.035-109.078 79.026-182.539 119.096-220.383-60.104-46.748-134.678-77.913-214.817-86.817v302.748z" />
<glyph unicode="&#xe913;" glyph-name="battery-empty" d="M979.478 570.435h-33.391v122.435c0 24.487-18.922 44.522-44.522 44.522h-857.043c-24.487 0-44.522-20.035-44.522-44.522v-489.739c0-24.487 20.035-44.522 44.522-44.522h857.043c24.487 0 44.522 20.035 44.522 44.522v122.435h33.391c24.487 0 44.522 15.583 44.522 40.070v164.73c0 24.487-20.035 40.070-44.522 40.070zM857.043 247.652h-768v400.696h768v-400.696z" />
<glyph unicode="&#xe914;" glyph-name="battery-full" d="M389.565 358.957v178.087c0 24.487 20.035 44.522 44.522 44.522h77.913c24.487 0 44.522-20.035 44.522-44.522v-178.087c0-24.487-20.035-44.522-44.522-44.522h-77.913c-24.487 0-44.522 20.035-44.522 44.522zM667.826 314.435h77.913c24.487 0 44.522 20.035 44.522 44.522v113.53c0 11.13-2.226 21.148-10.017 28.939l-58.991 66.783c-8.904 10.017-20.035 13.357-33.391 13.357h-20.035c-24.487 0-44.522-16.696-44.522-42.296v-180.313c0-24.487 20.035-44.522 44.522-44.522zM200.348 314.435h77.913c24.487 0 44.522 20.035 44.522 44.522v178.087c0 24.487-20.035 44.522-44.522 44.522h-77.913c-24.487 0-44.522-20.035-44.522-44.522v-178.087c0-24.487 20.035-44.522 44.522-44.522zM1024 530.365v-164.73c0-24.487-20.035-40.070-44.522-40.070h-33.391v-122.435c0-24.487-18.922-44.522-44.522-44.522h-857.043c-24.487 0-44.522 20.035-44.522 44.522v489.739c0 24.487 20.035 44.522 44.522 44.522h857.043c24.487 0 44.522-20.035 44.522-44.522v-122.435h33.391c24.487 0 44.522-15.583 44.522-40.070zM857.043 648.348h-768v-400.696h768v400.696z" />
<glyph unicode="&#xe915;" glyph-name="battery-low" d="M979.478 570.435h-33.391v122.435c0 24.487-18.922 44.522-44.522 44.522h-857.043c-24.487 0-44.522-20.035-44.522-44.522v-489.739c0-24.487 20.035-44.522 44.522-44.522h857.043c24.487 0 44.522 20.035 44.522 44.522v122.435h33.391c24.487 0 44.522 15.583 44.522 40.070v164.73c0 24.487-20.035 40.070-44.522 40.070zM857.043 247.652h-768v400.696h768v-400.696zM322.783 358.957c0-24.487-20.035-44.522-44.522-44.522h-77.913c-24.487 0-44.522 20.035-44.522 44.522v178.087c0 24.487 20.035 44.522 44.522 44.522h77.913c24.487 0 44.522-20.035 44.522-44.522v-178.087z" />
<glyph unicode="&#xe916;" glyph-name="battery-medium" d="M979.478 570.435h-33.391v122.435c0 24.487-18.922 44.522-44.522 44.522h-857.043c-24.487 0-44.522-20.035-44.522-44.522v-489.739c0-24.487 20.035-44.522 44.522-44.522h857.043c24.487 0 44.522 20.035 44.522 44.522v122.435h33.391c24.487 0 44.522 15.583 44.522 40.070v164.73c0 24.487-20.035 40.070-44.522 40.070zM857.043 247.652h-768v400.696h768v-400.696zM322.783 358.957c0-24.487-20.035-44.522-44.522-44.522h-77.913c-24.487 0-44.522 20.035-44.522 44.522v178.087c0 24.487 20.035 44.522 44.522 44.522h77.913c24.487 0 44.522-20.035 44.522-44.522v-178.087zM556.522 358.957c0-24.487-20.035-44.522-44.522-44.522h-77.913c-24.487 0-44.522 20.035-44.522 44.522v178.087c0 24.487 20.035 44.522 44.522 44.522h77.913c24.487 0 44.522-20.035 44.522-44.522v-178.087z" />
<glyph unicode="&#xe917;" glyph-name="bell" d="M934.957 164.174c-74.574 0-103.513 43.409-103.513 316.104 0 213.704-96.835 347.27-263.791 367.304v69.009c0 24.487-20.035 44.522-44.522 44.522s-44.522-20.035-44.522-44.522v-66.783c-178.087-14.47-281.6-150.261-281.6-368.417 0-272.696-32.278-316.104-107.965-316.104-23.374-1.113-44.522-17.809-44.522-42.296 0-25.6 20.035-42.296 44.522-42.296h289.391c3.339-33.391 13.357-74.574 40.070-103.513 23.374-25.6 54.539-40.070 91.27-40.070s67.896 15.583 91.27 40.070c27.826 30.052 38.957 70.122 43.409 103.513h290.504c24.487 0 44.522 16.696 44.522 42.296 0 24.487-20.035 41.183-44.522 41.183zM536.487 37.287c-4.452-4.452-11.13-11.13-26.713-11.13-14.47 0-21.148 6.678-25.6 11.13-7.791 10.017-13.357 21.148-15.583 43.409h37.843c2.226 0 4.452 0 6.678 0s4.452 0 6.678 0h36.73c-4.452-22.261-10.017-33.391-20.035-43.409zM518.678 169.739c-2.226 0-4.452 0-6.678 0s-4.452 0-6.678 0h-262.678c41.183 77.913 41.183 199.235 41.183 312.765 0 181.426 79.026 277.148 221.496 277.148h12.243c142.47 0 221.496-95.722 221.496-277.148 0-113.53 0-234.852 41.183-312.765h-261.565zM676.73 564.87c1.113-21.148-15.583-40.070-36.73-41.183-1.113 0-1.113 0-2.226 0-20.035 0-37.843 15.583-38.957 36.73-3.339 50.087-42.296 67.896-46.748 70.122-20.035 8.904-28.939 31.165-21.148 51.2s30.052 28.939 50.087 21.148c4.452-2.226 90.157-37.843 95.722-138.017z" />
<glyph unicode="&#xe918;" glyph-name="blog" d="M845.913 937.739h-667.826c-24.487 0-44.522-20.035-44.522-44.522v-890.435c0-24.487 20.035-44.522 44.522-44.522h667.826c24.487 0 44.522 20.035 44.522 44.522v890.435c0 24.487-20.035 44.522-44.522 44.522zM801.391 47.304h-578.783v801.391h578.783v-801.391zM317.217 236.522c0 24.487 20.035 44.522 44.522 44.522h300.522c24.487 0 44.522-20.035 44.522-44.522s-20.035-44.522-44.522-44.522h-300.522c-24.487 0-44.522 20.035-44.522 44.522zM323.896 448c0 24.487 20.035 44.522 44.522 44.522h292.73c24.487 0 44.522-20.035 44.522-44.522s-20.035-44.522-44.522-44.522h-292.73c-24.487 0-44.522 20.035-44.522 44.522zM323.896 659.478c0 24.487 20.035 44.522 44.522 44.522h292.73c24.487 0 44.522-20.035 44.522-44.522s-20.035-44.522-44.522-44.522h-292.73c-24.487 0-44.522 20.035-44.522 44.522z" />
<glyph unicode="&#xe919;" glyph-name="bluetooth" d="M577.67 448l199.235 197.009c17.809 16.696 17.809 45.635 0 62.33l-233.739 238.191c-12.243 14.47-31.165 17.809-47.861 11.13s-27.826-23.374-27.826-41.183v-357.287l-158.052 155.826c-17.809 17.809-45.635 16.696-63.443 0-17.809-17.809-16.696-45.635 0-63.443l205.913-202.574-204.8-203.687c-17.809-17.809-17.809-45.635 0-63.443 8.904-8.904 20.035-13.357 31.165-13.357s22.261 4.452 31.165 13.357l158.052 156.939v-357.287c0-17.809 11.13-34.504 27.826-41.183 5.565-2.226 11.13-3.339 16.696-3.339 12.243 0 23.374 4.452 32.278 13.357l233.739 238.191c16.696 17.809 16.696 45.635 0 62.33l-200.348 198.122zM556.522 806.4l125.774-129.113-125.774-124.661v253.774zM556.522 89.6v253.774l125.774-125.774-125.774-128z" />
<glyph unicode="&#xe91a;" glyph-name="bold" d="M668.939 468.035c41.183 40.070 66.783 96.835 66.783 158.052 0 122.435-100.174 222.609-222.609 222.609h-234.852c-24.487 0-44.522-20.035-44.522-44.522v-712.348c0-24.487 20.035-44.522 44.522-44.522h289.391c122.435 0 222.609 100.174 222.609 222.609 0 85.704-48.974 160.278-121.322 198.122zM322.783 759.652h190.33c73.461 0 133.565-60.104 133.565-133.565s-60.104-133.565-133.565-133.565h-190.33v267.13zM567.652 136.348h-244.87v267.13h244.87c73.461 0 133.565-60.104 133.565-133.565s-60.104-133.565-133.565-133.565z" />
<glyph unicode="&#xe91b;" glyph-name="bookmark" d="M712.348 960h-400.696c-24.487 0-44.522-20.035-44.522-44.522v-934.957c0-17.809 11.13-34.504 27.826-41.183 5.565-2.226 11.13-3.339 16.696-3.339 12.243 0 23.374 4.452 32.278 14.47l163.617 173.635 172.522-173.635c12.243-12.243 32.278-16.696 48.974-10.017 16.696 5.565 27.826 22.261 27.826 40.070v934.957c0 24.487-20.035 44.522-44.522 44.522zM667.826 88.487l-129.113 132.452c-8.904 8.904-20.035 15.583-31.165 15.583 0 0 0 0 0 0-12.243 0-23.374-7.791-32.278-16.696l-119.096-126.887v778.017h311.652v-782.47z" />
<glyph unicode="&#xe91c;" glyph-name="bookmarks" d="M589.913 770.783h-322.783c-24.487 0-44.522-16.696-44.522-41.183v-749.078c0-17.809 11.13-34.504 27.826-41.183 5.565-2.226 11.13-3.339 16.696-3.339 12.243 0 23.374 4.452 32.278 13.357l125.774 132.452 132.452-133.565c12.243-12.243 32.278-16.696 48.974-10.017 16.696 7.791 27.826 24.487 27.826 42.296v749.078c0 24.487-20.035 41.183-44.522 41.183zM545.391 88.487l-89.043 90.157c-8.904 8.904-20.035 13.357-31.165 13.357 0 0 0 0 0 0-12.243 0-23.374-5.565-32.278-14.47l-81.252-85.704v589.913h233.739v-593.252zM790.261 926.609v-749.078c0-21.148-17.809-38.957-38.957-38.957s-38.957 17.809-38.957 38.957v704.557h-233.739v-14.47c0-21.148-17.809-38.957-38.957-38.957s-38.957 17.809-38.957 38.957v58.991c0 21.148 12.243 33.391 33.391 33.391h322.783c21.148 0 33.391-12.243 33.391-33.391z" />
<glyph unicode="&#xe91d;" glyph-name="box" d="M831.443 692.87h-638.887c-24.487 0-44.522-20.035-44.522-44.522l-6.678-567.652c0-12.243 4.452-23.374 13.357-32.278s20.035-13.357 31.165-13.357h650.017c12.243 0 23.374 4.452 31.165 13.357 8.904 8.904 13.357 20.035 13.357 31.165l-4.452 567.652c0 25.6-20.035 45.635-44.522 45.635zM512 125.217h-281.6l5.565 478.609h550.957l3.339-478.609h-278.261zM654.47 481.391c0-24.487-20.035-44.522-44.522-44.522h-195.896c-24.487 0-44.522 20.035-44.522 44.522s20.035 44.522 44.522 44.522h194.783c25.6 0 45.635-20.035 45.635-44.522zM988.383 660.591c-3.339-1.113-6.678-1.113-8.904-1.113-21.148 0-40.070 14.47-43.409 35.617l-14.47 75.687h-819.2l-14.47-75.687c-4.452-24.487-27.826-40.070-52.313-35.617s-40.070 27.826-35.617 52.313l21.148 111.304c5.565 21.148 23.374 36.73 44.522 36.73h891.548c21.148 0 40.070-15.583 43.409-35.617l21.148-111.304c5.565-24.487-10.017-47.861-33.391-52.313z" />
<glyph unicode="&#xe91e;" glyph-name="briefcase" d="M1010.643 705.113c-7.791 7.791-18.922 10.017-31.165 10.017h-233.739v133.565c0 24.487-22.261 44.522-46.748 44.522h-373.983c-24.487 0-46.748-20.035-46.748-44.522v-133.565h-233.739c-24.487 0-44.522-14.47-44.522-38.957v-628.87c0-24.487 20.035-44.522 44.522-44.522h934.957c24.487 0 44.522 20.035 44.522 44.522v626.643c0 12.243-4.452 22.261-13.357 31.165zM367.304 804.174h289.391v-89.043h-289.391v89.043zM934.957 626.087v-233.739h-311.652v16.696c0 18.922-17.809 27.826-36.73 27.826h-149.148c-18.922 0-36.73-10.017-36.73-27.826v-16.696h-311.652v233.739h845.913zM556.522 370.087v-22.261h-89.043v22.261h89.043zM89.043 91.826v233.739h311.652v-11.13c0-18.922 17.809-33.391 36.73-33.391h150.261c18.922 0 36.73 15.583 36.73 33.391v11.13h311.652v-233.739h-847.026z" />
<glyph unicode="&#xe91f;" glyph-name="brightness-low" d="M512 640.557c-105.739 0-192.557-86.817-192.557-192.557s86.817-192.557 192.557-192.557 192.557 86.817 192.557 192.557c0 105.739-86.817 192.557-192.557 192.557zM512 344.487c-56.765 0-103.513 46.748-103.513 103.513s46.748 103.513 103.513 103.513 103.513-46.748 103.513-103.513c0-56.765-46.748-103.513-103.513-103.513zM467.478 752.974v40.070c0 24.487 20.035 44.522 44.522 44.522s44.522-20.035 44.522-44.522v-40.070c0-24.487-20.035-44.522-44.522-44.522s-44.522 20.035-44.522 44.522zM901.565 448c0-24.487-20.035-44.522-44.522-44.522h-40.070c-24.487 0-44.522 20.035-44.522 44.522s20.035 44.522 44.522 44.522h40.070c24.487 0 44.522-20.035 44.522-44.522zM556.522 143.026v-40.070c0-24.487-20.035-44.522-44.522-44.522s-44.522 20.035-44.522 44.522v40.070c0 24.487 20.035 44.522 44.522 44.522s44.522-20.035 44.522-44.522zM207.026 403.478h-40.070c-24.487 0-44.522 20.035-44.522 44.522s20.035 44.522 44.522 44.522h40.070c24.487 0 44.522-20.035 44.522-44.522s-20.035-44.522-44.522-44.522zM695.652 631.652c-17.809 17.809-17.809 45.635 0 63.443l27.826 27.826c17.809 17.809 45.635 17.809 63.443 0s17.809-45.635 0-63.443l-27.826-27.826c-8.904-8.904-20.035-13.357-31.165-13.357-11.13 1.113-23.374 5.565-32.278 13.357zM786.922 235.409c17.809-17.809 17.809-45.635 0-63.443-8.904-8.904-20.035-13.357-31.165-13.357s-22.261 4.452-31.165 13.357l-27.826 27.826c-17.809 17.809-17.809 45.635 0 63.443s45.635 17.809 63.443 0l26.713-27.826zM328.348 264.348c17.809-17.809 17.809-45.635 0-63.443l-27.826-27.826c-8.904-8.904-20.035-13.357-31.165-13.357s-22.261 4.452-31.165 13.357c-17.809 17.809-17.809 45.635 0 63.443l27.826 27.826c16.696 16.696 44.522 16.696 62.33 0zM237.078 660.591c-17.809 17.809-17.809 45.635 0 63.443s45.635 17.809 63.443 0l27.826-27.826c17.809-17.809 17.809-45.635 0-63.443-8.904-8.904-20.035-13.357-31.165-13.357s-22.261 4.452-31.165 13.357l-28.939 27.826z" />
<glyph unicode="&#xe920;" glyph-name="brightness-max" d="M512 696.209c-136.904 0-248.209-111.304-248.209-248.209s111.304-248.209 248.209-248.209 248.209 111.304 248.209 248.209-111.304 248.209-248.209 248.209zM512 288.835c-87.93 0-159.165 71.235-159.165 159.165s71.235 159.165 159.165 159.165 159.165-71.235 159.165-159.165-71.235-159.165-159.165-159.165zM467.478 823.096v92.383c0 24.487 20.035 44.522 44.522 44.522s44.522-20.035 44.522-44.522v-92.383c0-24.487-20.035-44.522-44.522-44.522s-44.522 20.035-44.522 44.522zM1024 448c0-24.487-20.035-44.522-44.522-44.522h-92.383c-24.487 0-44.522 20.035-44.522 44.522s20.035 44.522 44.522 44.522h92.383c24.487 0 44.522-20.035 44.522-44.522zM556.522 72.904v-92.383c0-24.487-20.035-44.522-44.522-44.522s-44.522 20.035-44.522 44.522v92.383c0 24.487 20.035 44.522 44.522 44.522s44.522-20.035 44.522-44.522zM136.904 403.478h-92.383c-24.487 0-44.522 20.035-44.522 44.522s20.035 44.522 44.522 44.522h92.383c24.487 0 44.522-20.035 44.522-44.522s-20.035-44.522-44.522-44.522zM745.739 681.739c-17.809 17.809-17.809 45.635 0 63.443l64.557 64.557c17.809 17.809 45.635 17.809 63.443 0s17.809-45.635 0-63.443l-64.557-64.557c-8.904-8.904-20.035-13.357-31.165-13.357s-23.374 4.452-32.278 13.357zM873.739 148.591c17.809-17.809 17.809-45.635 0-63.443-8.904-8.904-20.035-13.357-31.165-13.357s-22.261 4.452-31.165 13.357l-65.67 65.67c-17.809 17.809-17.809 45.635 0 63.443s45.635 17.809 63.443 0l64.557-65.67zM278.261 214.261c17.809-17.809 17.809-45.635 0-63.443l-64.557-64.557c-8.904-8.904-20.035-13.357-31.165-13.357s-22.261 4.452-31.165 13.357c-17.809 17.809-17.809 45.635 0 63.443l64.557 64.557c16.696 16.696 44.522 16.696 62.33 0zM150.261 747.409c-17.809 17.809-17.809 45.635 0 63.443s45.635 17.809 63.443 0l64.557-64.557c17.809-17.809 17.809-45.635 0-63.443-8.904-8.904-20.035-13.357-31.165-13.357s-22.261 4.452-31.165 13.357l-65.67 64.557z" />
<glyph unicode="&#xe921;" glyph-name="brightness-medium" d="M512 696.209c-136.904 0-248.209-111.304-248.209-248.209s111.304-248.209 248.209-248.209 248.209 111.304 248.209 248.209-111.304 248.209-248.209 248.209zM352.835 448c0 87.93 71.235 159.165 159.165 159.165v0-317.217c-87.93-1.113-159.165 70.122-159.165 158.052zM467.478 823.096v92.383c0 24.487 20.035 44.522 44.522 44.522s44.522-20.035 44.522-44.522v-92.383c0-24.487-20.035-44.522-44.522-44.522s-44.522 20.035-44.522 44.522zM1024 448c0-24.487-20.035-44.522-44.522-44.522h-92.383c-24.487 0-44.522 20.035-44.522 44.522s20.035 44.522 44.522 44.522h92.383c24.487 0 44.522-20.035 44.522-44.522zM556.522 72.904v-92.383c0-24.487-20.035-44.522-44.522-44.522s-44.522 20.035-44.522 44.522v92.383c0 24.487 20.035 44.522 44.522 44.522s44.522-20.035 44.522-44.522zM136.904 403.478h-92.383c-24.487 0-44.522 20.035-44.522 44.522s20.035 44.522 44.522 44.522h92.383c24.487 0 44.522-20.035 44.522-44.522s-20.035-44.522-44.522-44.522zM745.739 681.739c-17.809 17.809-17.809 45.635 0 63.443l64.557 64.557c17.809 17.809 45.635 17.809 63.443 0s17.809-45.635 0-63.443l-64.557-64.557c-8.904-8.904-20.035-13.357-31.165-13.357-12.243 1.113-23.374 4.452-32.278 13.357zM873.739 148.591c17.809-17.809 17.809-45.635 0-63.443-8.904-8.904-20.035-13.357-31.165-13.357s-22.261 4.452-31.165 13.357l-65.67 65.67c-17.809 17.809-17.809 45.635 0 63.443s45.635 17.809 63.443 0l64.557-65.67zM278.261 214.261c17.809-17.809 17.809-45.635 0-63.443l-64.557-64.557c-8.904-8.904-20.035-13.357-31.165-13.357s-22.261 4.452-31.165 13.357c-17.809 17.809-17.809 45.635 0 63.443l64.557 64.557c16.696 16.696 44.522 16.696 62.33 0zM150.261 747.409c-17.809 17.809-17.809 45.635 0 63.443s45.635 17.809 63.443 0l64.557-64.557c17.809-17.809 17.809-45.635 0-63.443-8.904-8.904-20.035-13.357-31.165-13.357s-22.261 4.452-31.165 13.357l-65.67 64.557z" />
<glyph unicode="&#xe922;" glyph-name="broadcast" d="M1018.435 578.226c-10.017 33.391-30.052 60.104-60.104 75.687-37.843 20.035-82.365 17.809-113.53 12.243l-64.557 228.174c-4.452 15.583-16.696 27.826-32.278 31.165s-32.278-1.113-43.409-13.357c-159.165-178.087-224.835-221.496-400.696-298.296l-138.017-40.070c-121.322-34.504-191.443-163.617-156.939-284.939 16.696-58.991 55.652-109.078 110.191-139.13 34.504-18.922 72.348-28.939 110.191-28.939 17.809 0 36.73 2.226 54.539 6.678l14.47-52.313c7.791-27.826 23.374-52.313 43.409-72.348l23.374-22.261c8.904-7.791 20.035-12.243 31.165-12.243 12.243 0 23.374 4.452 32.278 13.357 16.696 17.809 16.696 45.635-2.226 63.443l-23.374 22.261c-8.904 8.904-15.583 20.035-18.922 32.278l-14.47 52.313 64.557 18.922c184.765 27.826 268.243 25.6 494.191-38.957 4.452-1.113 7.791-2.226 12.243-2.226 11.13 0 23.374 4.452 31.165 13.357 11.13 11.13 15.583 27.826 11.13 43.409l-65.67 228.174c28.939 11.13 67.896 31.165 90.157 67.896 16.696 28.939 21.148 61.217 11.13 95.722zM162.504 227.617c-33.391 17.809-56.765 48.974-67.896 84.591-21.148 75.687 22.261 153.6 95.722 175.861l100.174 28.939 45.635-161.391 31.165-111.304-100.174-28.939c-34.504-10.017-72.348-5.565-104.626 12.243zM615.513 276.591c-50.087 0-100.174-4.452-159.165-12.243l-64.557 228.174-15.583 55.652c140.243 64.557 215.93 114.643 340.591 244.87l158.052-555.409c-105.739 27.826-181.426 38.957-259.339 38.957zM931.617 529.252c-6.678-12.243-23.374-21.148-38.957-27.826l-22.261 77.913c16.696 2.226 35.617 2.226 47.861-4.452 5.565-3.339 11.13-7.791 15.583-20.035 3.339-13.357 0-20.035-2.226-25.6zM648.904 602.713c12.243-17.809 8.904-42.296-8.904-54.539-41.183-28.939-87.93-54.539-90.157-55.652-5.565-3.339-12.243-4.452-17.809-4.452-14.47 0-27.826 7.791-34.504 21.148-10.017 18.922-2.226 42.296 16.696 52.313 0 0 44.522 23.374 80.139 48.974 17.809 14.47 42.296 10.017 54.539-7.791z" />
<glyph unicode="&#xe923;" glyph-name="browser-upload" d="M556.522 436.87l1.113-456.348c0-24.487-20.035-44.522-44.522-44.522 0 0 0 0 0 0-24.487 0-44.522 20.035-44.522 44.522l-1.113 457.461-129.113-129.113c-17.809-17.809-45.635-16.696-63.443 0-17.809 17.809-16.696 45.635 0 63.443l204.8 203.687c17.809 16.696 45.635 16.696 62.33 0l204.8-203.687c17.809-17.809 17.809-45.635 0-63.443-8.904-8.904-20.035-13.357-31.165-13.357s-22.261 4.452-31.165 13.357l-128 128zM1024 915.478v-742.4c0-24.487-20.035-47.861-44.522-47.861h-273.809c-24.487 0-44.522 20.035-44.522 44.522s20.035 44.522 44.522 44.522h229.287v478.609h-845.913v-478.609h232.626c24.487 0 44.522-20.035 44.522-44.522s-20.035-44.522-44.522-44.522h-277.148c-24.487 0-44.522 23.374-44.522 47.861v742.4c0 24.487 20.035 44.522 44.522 44.522h934.957c24.487 0 44.522-20.035 44.522-44.522zM445.217 770.783h111.304v100.174h-111.304v-100.174zM378.435 870.957h-111.304v-100.174h111.304v100.174zM89.043 770.783h111.304v100.174h-111.304v-100.174zM934.957 770.783v100.174h-311.652v-100.174h311.652z" />
<glyph unicode="&#xe924;" glyph-name="browser" d="M979.478 859.826h-934.957c-24.487 0-44.522-20.035-44.522-44.522v-734.609c0-24.487 20.035-44.522 44.522-44.522h934.957c24.487 0 44.522 20.035 44.522 44.522v734.609c0 24.487-20.035 44.522-44.522 44.522zM934.957 670.609h-311.652v100.174h311.652v-100.174zM267.13 670.609v100.174h111.304v-100.174h-111.304zM445.217 770.783h111.304v-100.174h-111.304v100.174zM200.348 770.783v-100.174h-111.304v100.174h111.304zM89.043 125.217v467.478h845.913v-467.478h-845.913z" />
<glyph unicode="&#xe925;" glyph-name="brush" d="M1024 863.165c0 25.6-10.017 48.974-27.826 66.783l-2.226 2.226c-36.73 36.73-95.722 36.73-132.452 1.113l-543.165-504.209c-73.461 15.583-152.487-4.452-208.139-61.217-76.8-75.687-75.687-160.278-74.574-211.478 0-6.678 0-13.357 0-18.922-1.113-41.183-22.261-91.27-31.165-107.965-5.565-11.13-6.678-24.487-2.226-35.617 4.452-12.243 13.357-21.148 24.487-25.6 52.313-22.261 104.626-32.278 154.713-32.278 87.93 0 171.409 33.391 234.852 96.835 52.313 52.313 81.252 115.757 81.252 179.2 0 15.583-2.226 30.052-4.452 44.522l503.096 540.939c17.809 17.809 27.826 41.183 27.826 65.67zM353.948 96.278c-65.67-65.67-155.826-86.817-250.435-60.104 10.017 27.826 20.035 64.557 21.148 100.174v0c0 6.678 0 14.47 0 22.261-1.113 45.635-2.226 96.835 47.861 145.809 53.426 53.426 141.357 53.426 195.896 0 26.713-26.713 41.183-58.991 41.183-92.383 0-38.957-20.035-80.139-55.652-115.757zM933.843 859.826c0 0-1.113-1.113-1.113-1.113l-479.722-515.339c-6.678 8.904-13.357 16.696-21.148 24.487s-16.696 14.47-24.487 21.148l515.339 479.722c0 0 1.113 1.113 1.113 1.113 2.226 2.226 5.565 2.226 7.791 0l2.226-2.226c1.113-2.226 1.113-3.339 1.113-4.452s0-2.226-1.113-3.339z" />
<glyph unicode="&#xe926;" glyph-name="calendar" d="M244.87 717.357v142.47c0 31.165 24.487 55.652 55.652 55.652s55.652-24.487 55.652-55.652v-142.47c0-31.165-24.487-55.652-55.652-55.652s-55.652 24.487-55.652 55.652zM723.478 661.704c31.165 0 55.652 24.487 55.652 55.652v142.47c0 31.165-24.487 55.652-55.652 55.652s-55.652-24.487-55.652-55.652v-142.47c0-31.165 24.487-55.652 55.652-55.652zM1024 788.591v-752.417c0-24.487-20.035-44.522-44.522-44.522h-934.957c-24.487 0-44.522 20.035-44.522 44.522v752.417c0 24.487 20.035 48.974 44.522 48.974h103.513c24.487 0 44.522-20.035 44.522-44.522s-20.035-44.522-44.522-44.522h-58.991v-189.217h845.913v189.217h-58.991c-24.487 0-44.522 20.035-44.522 44.522s20.035 44.522 44.522 44.522h103.513c24.487 0 44.522-24.487 44.522-48.974zM934.957 80.696v400.696h-845.913v-400.696h845.913zM441.878 748.522h140.243c24.487 0 44.522 20.035 44.522 44.522s-20.035 44.522-44.522 44.522h-140.243c-24.487 0-44.522-20.035-44.522-44.522s20.035-44.522 44.522-44.522z" />
<glyph unicode="&#xe927;" glyph-name="camcorder" d="M999.513 721.809c-15.583 7.791-35.617 5.565-48.974-4.452l-182.539-134.678v99.061c0 24.487-15.583 44.522-40.070 44.522h-683.409c-24.487 0-44.522-20.035-44.522-44.522v-467.478c0-24.487 20.035-44.522 44.522-44.522h683.409c24.487 0 40.070 20.035 40.070 44.522v99.061l182.539-134.678c7.791-5.565 18.922-8.904 27.826-8.904 6.678 0 14.47 1.113 20.035 4.452 15.583 7.791 25.6 23.374 25.6 40.070v467.478c0 16.696-10.017 32.278-24.487 40.070zM678.957 258.783h-589.913v378.435h589.913v-378.435zM934.957 303.304l-155.826 117.983v53.426l155.826 117.983v-289.391z" />
<glyph unicode="&#xe928;" glyph-name="camera" d="M512 659.478c-140.243 0-254.887-115.757-254.887-258.226s114.643-258.226 254.887-258.226 254.887 115.757 254.887 258.226c0 142.47-114.643 258.226-254.887 258.226zM512 230.957c-91.27 0-165.843 75.687-165.843 169.183s74.574 170.296 165.843 170.296 165.843-75.687 165.843-169.183-74.574-170.296-165.843-170.296zM635.548 390.122c-2.226-20.035-18.922-33.391-38.957-33.391-2.226 0-3.339 0-5.565 0-21.148 3.339-36.73 22.261-33.391 43.409 4.452 32.278-33.391 50.087-35.617 51.2-18.922 8.904-27.826 32.278-18.922 51.2s31.165 27.826 51.2 20.035c35.617-15.583 91.27-60.104 81.252-132.452zM549.843 341.148c7.791-7.791 13.357-20.035 13.357-31.165s-4.452-23.374-13.357-31.165c-8.904-7.791-20.035-13.357-31.165-13.357s-23.374 4.452-31.165 13.357c-7.791 8.904-13.357 20.035-13.357 31.165 0 12.243 4.452 23.374 13.357 31.165 8.904 8.904 20.035 13.357 31.165 13.357s23.374-4.452 31.165-13.357zM979.478 670.609h-171.409l-47.861 178.087c-5.565 18.922-23.374 33.391-43.409 33.391h-410.713c-20.035 0-37.843-14.47-43.409-33.391l-47.861-178.087h-170.296c-24.487 0-44.522-18.922-44.522-43.409v-568.765c0-24.487 20.035-44.522 44.522-44.522h934.957c24.487 0 44.522 20.035 44.522 44.522v568.765c0 24.487-20.035 43.409-44.522 43.409zM934.957 102.957h-845.913v478.609h160.278c20.035 0 37.843 14.47 43.409 33.391l47.861 178.087h342.817l47.861-178.087c5.565-18.922 23.374-33.391 43.409-33.391h160.278v-478.609z" />
<glyph unicode="&#xe929;" glyph-name="card" d="M1024 699.548c0 45.635-36.73 82.365-82.365 82.365h-859.27c-45.635 0-82.365-36.73-82.365-82.365v-504.209c0-44.522 36.73-81.252 82.365-81.252h860.383c45.635 0 82.365 36.73 82.365 82.365v503.096zM934.957 692.87v-77.913h-845.913v77.913h845.913zM89.043 203.13v278.261h845.913v-278.261h-845.913zM851.478 347.826c0-24.487-20.035-44.522-44.522-44.522h-211.478c-24.487 0-44.522 20.035-44.522 44.522s20.035 44.522 44.522 44.522h211.478c24.487 0 44.522-20.035 44.522-44.522z" />
<glyph unicode="&#xe92a;" glyph-name="cart" d="M1021.774 656.139l-119.096-375.096c-8.904-26.713-32.278-44.522-60.104-44.522h-459.687c-26.713 0-52.313 16.696-61.217 41.183l-175.861 470.817h-101.287c-24.487 0-44.522 20.035-44.522 44.522s20.035 44.522 44.522 44.522h132.452c18.922 0 35.617-12.243 42.296-30.052l181.426-481.948h422.957l94.609 300.522h-524.243c-24.487 0-44.522 20.035-44.522 44.522s20.035 44.522 44.522 44.522h585.461c14.47 0 27.826-7.791 35.617-18.922 8.904-11.13 11.13-26.713 6.678-40.070zM405.148 177.53c-18.922 0-37.843-7.791-51.2-21.148s-21.148-32.278-21.148-51.2c0-18.922 7.791-37.843 21.148-51.2s32.278-21.148 51.2-21.148 37.843 7.791 51.2 21.148c13.357 13.357 21.148 32.278 21.148 51.2s-7.791 37.843-21.148 51.2c-13.357 13.357-32.278 21.148-51.2 21.148zM804.73 177.53c-18.922 0-37.843-7.791-51.2-21.148s-21.148-32.278-21.148-51.2c0-18.922 7.791-37.843 21.148-51.2s32.278-21.148 51.2-21.148c18.922 0 37.843 7.791 51.2 21.148s21.148 32.278 21.148 51.2c0 18.922-7.791 37.843-21.148 51.2s-32.278 21.148-51.2 21.148z" />
<glyph unicode="&#xe92b;" glyph-name="checklist" d="M402.922 804.174c0 31.165 24.487 55.652 55.652 55.652h487.513c31.165 0 55.652-24.487 55.652-55.652s-24.487-55.652-55.652-55.652h-487.513c-30.052 0-55.652 24.487-55.652 55.652zM946.087 503.652h-487.513c-31.165 0-55.652-24.487-55.652-55.652s24.487-55.652 55.652-55.652h487.513c31.165 0 55.652 24.487 55.652 55.652s-24.487 55.652-55.652 55.652zM946.087 147.478h-487.513c-31.165 0-55.652-24.487-55.652-55.652s24.487-55.652 55.652-55.652h487.513c31.165 0 55.652 24.487 55.652 55.652s-24.487 55.652-55.652 55.652zM278.261 887.652c0 21.148-17.809 38.957-38.957 38.957h-166.957c-21.148 0-38.957-17.809-38.957-38.957v-166.957c0-21.148 17.809-38.957 38.957-38.957h166.957c21.148 0 38.957 17.809 38.957 38.957v166.957zM278.261 364.522c0-21.148-17.809-38.957-38.957-38.957h-166.957c-21.148 0-38.957 17.809-38.957 38.957v166.957c0 21.148 17.809 38.957 38.957 38.957h166.957c21.148 0 38.957-17.809 38.957-38.957v-166.957zM211.478 492.522h-100.174v-89.043h100.174v89.043zM278.261 8.348c0-21.148-17.809-38.957-38.957-38.957h-166.957c-21.148 0-38.957 17.809-38.957 38.957v166.957c0 21.148 17.809 38.957 38.957 38.957h166.957c21.148 0 38.957-17.809 38.957-38.957v-166.957zM211.478 136.348h-100.174v-100.174h100.174v100.174z" />
<glyph unicode="&#xe92c;" glyph-name="checkmark" d="M382.887 158.609c-13.357 0-25.6 4.452-35.617 14.47l-221.496 221.496c-20.035 20.035-20.035 51.2 0 71.235s51.2 20.035 71.235 0l186.991-185.878 444.104 442.991c20.035 20.035 51.2 20.035 71.235 0s20.035-51.2 0-71.235l-479.722-478.609c-11.13-10.017-23.374-14.47-36.73-14.47z" />
<glyph unicode="&#xe92d;" glyph-name="chevron-down" d="M512 258.783c-12.243 0-23.374 4.452-32.278 13.357l-278.261 289.391c-16.696 17.809-16.696 45.635 1.113 63.443 17.809 16.696 45.635 16.696 63.443-1.113l245.983-256 245.983 256c16.696 17.809 45.635 17.809 63.443 1.113s17.809-45.635 1.113-63.443l-278.261-289.391c-8.904-8.904-20.035-13.357-32.278-13.357z" />
<glyph unicode="&#xe92e;" glyph-name="chevron-left" d="M687.861 202.017c17.809-16.696 17.809-45.635 1.113-63.443-8.904-8.904-21.148-13.357-32.278-13.357s-22.261 4.452-31.165 12.243l-289.391 278.261c-8.904 8.904-13.357 20.035-13.357 32.278s4.452 23.374 13.357 32.278l289.391 278.261c17.809 16.696 45.635 16.696 63.443-1.113 16.696-17.809 16.696-45.635-1.113-63.443l-256-245.983 256-245.983z" />
<glyph unicode="&#xe92f;" glyph-name="chevron-right" d="M701.217 448c0-12.243-4.452-23.374-13.357-32.278l-289.391-278.261c-8.904-7.791-20.035-12.243-31.165-12.243-12.243 0-23.374 4.452-32.278 13.357-16.696 17.809-16.696 45.635 1.113 63.443l256 245.983-256 245.983c-17.809 16.696-17.809 45.635-1.113 63.443s45.635 17.809 63.443 1.113l289.391-278.261c8.904-8.904 13.357-20.035 13.357-32.278z" />
<glyph unicode="&#xe930;" glyph-name="chevron-up" d="M790.261 258.783c-12.243 0-23.374 4.452-32.278 13.357l-245.983 256-245.983-256c-16.696-17.809-45.635-17.809-63.443-1.113s-17.809 45.635-1.113 63.443l278.261 289.391c8.904 8.904 20.035 13.357 32.278 13.357s23.374-4.452 32.278-13.357l278.261-289.391c16.696-17.809 16.696-45.635-1.113-63.443-8.904-7.791-20.035-12.243-31.165-12.243z" />
<glyph unicode="&#xe931;" glyph-name="clipboard" d="M857.043 859.826h-165.843l-17.809 46.748c-12.243 32.278-43.409 53.426-77.913 53.426h-158.052c-34.504 0-65.67-21.148-77.913-53.426l-16.696-46.748h-175.861c-24.487 0-44.522-22.261-44.522-46.748v-832.557c0-24.487 20.035-44.522 44.522-44.522h690.087c24.487 0 44.522 20.035 44.522 44.522v832.557c0 24.487-20.035 46.748-44.522 46.748zM373.983 770.783c18.922 0 35.617 11.13 42.296 27.826l26.713 72.348h149.148l26.713-72.348c6.678-17.809 23.374-27.826 42.296-27.826h35.617l-32.278-63.443c-5.565-8.904-15.583-14.47-26.713-14.47h-242.643c-10.017 0-20.035 4.452-25.6 13.357l-36.73 64.557h41.183zM812.522 25.043h-601.043v745.739h18.922l62.33-111.304c0-1.113 1.113 0 1.113-1.113 22.261-34.504 60.104-54.539 101.287-54.539h241.53c42.296 0 82.365 21.148 103.513 58.991 0 1.113 1.113 2.226 1.113 2.226l53.426 105.739h17.809v-745.739z" />
<glyph unicode="&#xe932;" glyph-name="clock" d="M512 960c-282.713 0-512-229.287-512-512s229.287-512 512-512 512 229.287 512 512-229.287 512-512 512zM512 25.043c-233.739 0-422.957 189.217-422.957 422.957s189.217 422.957 422.957 422.957 422.957-189.217 422.957-422.957-189.217-422.957-422.957-422.957zM682.296 341.148c17.809-17.809 17.809-45.635 0-63.443-8.904-8.904-20.035-13.357-31.165-13.357s-22.261 4.452-31.165 13.357l-139.13 139.13c-8.904 7.791-13.357 18.922-13.357 31.165v264.904c0 24.487 20.035 44.522 44.522 44.522s44.522-20.035 44.522-44.522v-247.096l125.774-124.661z" />
<glyph unicode="&#xe933;" glyph-name="clockwise" d="M967.235 494.748l-154.713-155.826c-8.904-8.904-20.035-13.357-32.278-13.357s-23.374 4.452-32.278 13.357l-153.6 155.826c-16.696 17.809-16.696 45.635 0 63.443 17.809 16.696 45.635 16.696 63.443 0l85.704-86.817c-11.13 161.391-143.583 289.391-304.974 289.391-168.070-1.113-304.974-141.357-304.974-312.765s136.904-311.652 306.087-311.652c62.33 0 122.435 18.922 172.522 54.539 20.035 14.47 47.861 8.904 62.33-11.13s8.904-47.861-11.13-62.33c-65.67-45.635-143.583-70.122-223.722-70.122-218.157 0-395.13 179.2-395.13 400.696s176.974 400.696 395.13 400.696c204.8 0 373.983-159.165 392.904-362.852l70.122 71.235c17.809 17.809 45.635 17.809 63.443 0 17.809-16.696 17.809-44.522 1.113-62.33z" />
<glyph unicode="&#xe934;" glyph-name="cloud-download" d="M1012.87 465.809c-6.678-95.722-80.139-198.122-225.948-198.122-66.783 0-101.287 0-101.287 0-24.487 0-44.522 21.148-44.522 45.635s20.035 45.635 44.522 45.635c0 0 0 0 0 0s34.504-1.113 101.287-1.113c89.043 0 133.565 56.765 138.017 114.643 4.452 58.991-33.391 124.661-125.774 138.017-12.243 2.226-23.374 8.904-30.052 18.922s-8.904 23.374-6.678 35.617c12.243 50.087-1.113 90.157-33.391 109.078-27.826 15.583-72.348 15.583-110.191-21.148-10.017-10.017-24.487-14.47-37.843-12.243s-25.6 11.13-32.278 23.374c-62.33 116.87-159.165 123.548-222.609 93.496-61.217-28.939-110.191-101.287-72.348-192.557 4.452-11.13 4.452-24.487-1.113-35.617s-15.583-20.035-26.713-23.374c-131.339-41.183-128-128-124.661-152.487 6.678-47.861 44.522-95.722 103.513-95.722h135.791c24.487 0 44.522-20.035 44.522-44.522s-20.035-43.409-44.522-43.409c0 0 0 0 0 0h-135.791c-95.722 0-176.974 71.235-191.443 170.296-11.13 76.8 20.035 179.2 141.357 233.739-26.713 119.096 40.070 219.27 131.339 262.678 93.496 44.522 224.835 32.278 312.765-89.043 54.539 30.052 119.096 32.278 172.522 2.226 45.635-25.6 86.817-80.139 83.478-161.391 115.757-35.617 163.617-135.791 158.052-222.609zM664.487 196.452l-107.965-109.078-1.113 404.035c0 24.487-20.035 45.635-44.522 45.635 0 0 0 0 0 0-24.487 0-44.522-21.148-44.522-45.635l1.113-402.922-107.965 107.965c-17.809 17.809-45.635 17.809-63.443 0s-17.809-45.635 0-63.443l183.652-184.765c8.904-8.904 20.035-13.357 31.165-13.357s23.374 4.452 31.165 13.357l183.652 183.652c17.809 17.809 17.809 45.635 0 63.443-15.583 17.809-43.409 17.809-61.217 1.113z" />
<glyph unicode="&#xe935;" glyph-name="cloud-upload" d="M1024 386.783c-6.678-96.835-82.365-202.574-230.4-202.574-67.896 0-103.513 0-103.513 0-24.487 0-44.522 18.922-44.522 43.409s20.035 42.296 44.522 42.296c0 0 0 0 0 0s35.617 2.226 103.513 2.226c92.383 0 138.017 62.33 142.47 121.322 4.452 61.217-34.504 129.113-129.113 142.47-12.243 2.226-23.374 8.904-30.052 18.922s-8.904 23.374-6.678 35.617c12.243 52.313-1.113 93.496-35.617 112.417-28.939 16.696-75.687 15.583-113.53-21.148-10.017-10.017-24.487-14.47-37.843-12.243s-25.6 11.13-32.278 23.374c-64.557 121.322-163.617 126.887-229.287 95.722-63.443-30.052-113.53-104.626-74.574-199.235 4.452-11.13 4.452-24.487-1.113-35.617s-15.583-20.035-26.713-23.374c-135.791-41.183-132.452-130.226-129.113-156.939 7.791-48.974 46.748-99.061 106.852-99.061l139.13-1.113c24.487 0 44.522-21.148 44.522-45.635s-20.035-46.748-44.522-46.748c0 0 0 0 0 0l-138.017 3.339c-97.948 0-179.2 75.687-194.783 176.974-12.243 77.913 21.148 182.539 145.809 238.191-28.939 122.435 40.070 225.948 133.565 269.357 95.722 45.635 230.4 32.278 319.443-91.27 55.652 31.165 121.322 33.391 175.861 2.226 46.748-26.713 89.043-82.365 84.591-165.843 117.983-35.617 166.957-138.017 161.391-227.061zM668.939 350.052c8.904-8.904 20.035-13.357 31.165-13.357s22.261 4.452 31.165 13.357c17.809 17.809 17.809 45.635 0 63.443l-188.104 189.217c-7.791 7.791-18.922 12.243-31.165 12.243s-23.374-4.452-31.165-13.357l-188.104-189.217c-17.809-17.809-17.809-45.635 0-63.443s45.635-17.809 63.443 0l111.304 114.643 1.113-416.278c0-24.487 20.035-44.522 44.522-44.522 0 0 0 0 0 0 24.487 0 44.522 20.035 44.522 44.522l-1.113 415.165 112.417-112.417z" />
<glyph unicode="&#xe936;" glyph-name="cloud" d="M792.487 91.826c-222.609 0-588.8 1.113-595.478 1.113-96.835 0-179.2 73.461-194.783 174.748-12.243 79.026 21.148 184.765 145.809 240.417-28.939 123.548 41.183 228.174 134.678 271.583 58.991 27.826 123.548 31.165 183.652 11.13 52.313-17.809 99.061-53.426 134.678-103.513 55.652 31.165 121.322 33.391 175.861 3.339 46.748-26.713 90.157-82.365 85.704-166.957 119.096-36.73 166.957-140.243 161.391-229.287-7.791-97.948-82.365-202.574-231.513-202.574zM388.452 715.13c-24.487 0-48.974-5.565-69.009-15.583-64.557-30.052-114.643-105.739-75.687-201.461 4.452-11.13 4.452-24.487-1.113-35.617s-15.583-20.035-26.713-23.374c-132.452-41.183-129.113-131.339-125.774-158.052 7.791-48.974 46.748-99.061 106.852-99.061 0 0 0 0 0 0 3.339 0 371.757-1.113 595.478-1.113 92.383 0 138.017 60.104 142.47 120.209 4.452 61.217-33.391 130.226-129.113 143.583-12.243 2.226-23.374 8.904-30.052 18.922s-8.904 23.374-6.678 35.617c12.243 53.426-1.113 94.609-35.617 114.643-28.939 16.696-74.574 15.583-113.53-22.261-10.017-10.017-24.487-14.47-37.843-12.243-14.47 2.226-25.6 11.13-32.278 23.374-44.522 83.478-105.739 112.417-161.391 112.417z" />
<glyph unicode="&#xe937;" glyph-name="code" d="M656.696 125.217c-12.243 0-23.374 4.452-32.278 13.357-16.696 17.809-16.696 45.635 1.113 63.443l256 245.983-256 245.983c-17.809 16.696-17.809 45.635-1.113 63.443s45.635 17.809 63.443 1.113l289.391-278.261c8.904-8.904 13.357-20.035 13.357-32.278s-4.452-23.374-13.357-32.278l-289.391-278.261c-8.904-7.791-20.035-12.243-31.165-12.243zM399.583 138.574c16.696 17.809 16.696 45.635-1.113 63.443l-256 245.983 256 245.983c17.809 16.696 17.809 45.635 1.113 63.443s-45.635 17.809-63.443 1.113l-289.391-278.261c-8.904-8.904-13.357-20.035-13.357-32.278s4.452-23.374 13.357-32.278l289.391-278.261c8.904-7.791 20.035-12.243 31.165-12.243s23.374 4.452 32.278 13.357z" />
<glyph unicode="&#xe938;" glyph-name="contract-2" d="M450.783 389.009c7.791-8.904 13.357-21.148 13.357-32.278v-232.626c0-24.487-20.035-42.296-44.522-42.296h1.113c-24.487 0-42.296 16.696-42.296 41.183v124.661l-278.261-276.035c-8.904-8.904-22.261-13.357-33.391-13.357s-22.261 4.452-31.165 13.357c-17.809 17.809-17.809 46.748 0 63.443l276.035 279.374h-125.774c-24.487 0-44.522 20.035-44.522 44.522s20.035 44.522 44.522 44.522h233.739c12.243 0 23.374-5.565 31.165-14.47zM988.383 924.383c-17.809 17.809-44.522 17.809-62.33 0l-280.487-281.6v126.887c0 24.487-20.035 45.635-45.635 45.635v0c-24.487 0-44.522-20.035-44.522-44.522v-233.739c0-12.243 4.452-22.261 13.357-31.165s20.035-12.243 31.165-12.243h233.739c24.487 0 44.522 20.035 44.522 44.522s-20.035 44.522-44.522 44.522h-126.887l281.6 279.374c17.809 17.809 17.809 45.635 0 62.33z" />
<glyph unicode="&#xe939;" glyph-name="contract" d="M983.93 33.948c17.809-17.809 17.809-45.635 0-63.443-8.904-8.904-20.035-13.357-31.165-13.357s-23.374 4.452-32.278 13.357l-241.53 241.53v-114.643c0-24.487-20.035-44.522-44.522-44.522s-44.522 20.035-44.522 44.522v222.609c0 12.243 5.565 23.374 13.357 31.165 8.904 7.791 20.035 13.357 32.278 13.357v0h222.609c24.487 0 44.522-20.035 44.522-44.522s-20.035-44.522-44.522-44.522c0 0 0 0 0 0h-114.643l240.417-241.53zM633.322 525.913h222.609c24.487 0 44.522 20.035 44.522 44.522s-20.035 44.522-44.522 44.522h-114.643l247.096 247.096c17.809 17.809 17.809 45.635 0 62.33-17.809 17.809-45.635 16.696-62.33 0l-247.096-247.096v114.643c0 24.487-20.035 45.635-44.522 45.635v0c-24.487 0-44.522-20.035-44.522-44.522v-222.609c0-12.243 4.452-22.261 13.357-31.165 7.791-8.904 18.922-13.357 30.052-13.357zM388.452 834.226c-24.487 0-43.409-20.035-43.409-44.522v-114.643l-245.983 245.983c-17.809 16.696-45.635 16.696-63.443 0-17.809-17.809-17.809-44.522 0-61.217l244.87-243.757h-113.53v-1.113c-22.261 0-45.635-21.148-45.635-45.635s20.035-44.522 44.522-44.522h222.609c11.13 0 22.261 4.452 31.165 13.357s12.243 20.035 12.243 31.165v222.609c1.113 22.261-18.922 42.296-43.409 42.296zM386.226 370.087h-222.609c-24.487 0-44.522-20.035-44.522-44.522s20.035-44.522 44.522-44.522h114.643l-242.643-244.87c-17.809-17.809-17.809-46.748 0-63.443 8.904-8.904 20.035-13.357 32.278-13.357 11.13 0 24.487 4.452 33.391 13.357l243.757 241.53v-114.643c0-24.487 17.809-41.183 42.296-41.183h-1.113c24.487 0 44.522 17.809 44.522 42.296v221.496c0 12.243-4.452 24.487-13.357 33.391-7.791 8.904-18.922 14.47-31.165 14.47z" />
<glyph unicode="&#xe93a;" glyph-name="conversation" d="M979.478 692.87h-434.087v102.4c0 18.922-24.487 42.296-42.296 42.296h-469.704c-18.922 0-33.391-23.374-33.391-42.296v-284.939c0-17.809 15.583-40.070 33.391-40.070h67.896l89.043-96.835c6.678-7.791 15.583-10.017 25.6-10.017 4.452 0 5.565 1.113 10.017 3.339 13.357 4.452 20.035 17.809 20.035 32.278v71.235h66.783v-207.026c0-24.487 25.6-48.974 50.087-48.974h304.974v-135.791c0-17.809 8.904-34.504 26.713-41.183 5.565-2.226 10.017-3.339 15.583-3.339 12.243 0 23.374 2.226 32.278 11.13l165.843 169.183h71.235c24.487 0 44.522 24.487 44.522 48.974v375.096c0 24.487-20.035 54.539-44.522 54.539zM215.93 537.043c-18.922 0-37.843-7.791-37.843-26.713v-22.261l-37.843 41.183c-6.678 7.791-14.47 7.791-23.374 7.791h-50.087v233.739h400.696v-77.913h-105.739c-24.487 0-50.087-30.052-50.087-54.539v-101.287h-95.722zM934.957 303.304h-45.635c-12.243 0-22.261-2.226-31.165-11.13l-101.287-102.4v74.574c0 24.487-23.374 40.070-47.861 40.070h-308.313v299.409h534.261v-300.522zM465.252 503.652c0 18.922 15.583 33.391 33.391 33.391h212.591c18.922 0 33.391-14.47 33.391-33.391s-15.583-33.391-33.391-33.391h-212.591c-18.922 0-33.391 14.47-33.391 33.391zM789.148 480.278c-6.678 6.678-10.017 14.47-10.017 23.374s3.339 17.809 10.017 23.374c12.243 12.243 35.617 12.243 47.861 0 6.678-6.678 10.017-14.47 10.017-23.374s-3.339-17.809-10.017-23.374c-6.678-6.678-14.47-10.017-23.374-10.017-10.017 1.113-18.922 4.452-24.487 10.017z" />
<glyph unicode="&#xe93b;" glyph-name="copy" d="M512 716.243c-7.791 7.791-17.809 10.017-27.826 10.017h-332.8c-22.261 0-51.2-13.357-51.2-34.504v-704.557c0-22.261 28.939-50.087 51.2-50.087h527.583c22.261 0 33.391 28.939 33.391 50.087v507.548c0 10.017-1.113 18.922-8.904 26.713l-191.443 194.783zM622.191 492.522h-143.583v143.583l143.583-143.583zM189.217 25.043v623.304h211.478v-191.443c0-22.261 20.035-42.296 42.296-42.296h191.443v-389.565h-445.217zM917.148 759.652l-193.67 193.67c-6.678 5.565-13.357 6.678-22.261 6.678h-332.8c-18.922 0-34.504-10.017-34.504-27.826v-106.852c0-18.922 14.47-33.391 33.391-33.391s33.391 15.583 33.391 33.391v67.896h233.739v-188.104c0-18.922 15.583-34.504 34.504-34.504h188.104v-411.826h-45.635c-18.922 0-33.391-14.47-33.391-33.391s15.583-33.391 33.391-33.391h84.591c18.922 0 27.826 16.696 27.826 35.617v507.548c0 8.904-1.113 17.809-6.678 24.487zM701.217 882.087l143.583-144.696h-143.583v144.696z" />
<glyph unicode="&#xe93c;" glyph-name="crop" d="M988.383 850.922c17.809 16.696 17.809 45.635 0 63.443-16.696 17.809-45.635 16.696-63.443 0l-132.452-132.452h-558.748v81.252c0 24.487-20.035 44.522-44.522 44.522s-44.522-20.035-44.522-44.522v-81.252h-77.913c-24.487 0-44.522-20.035-44.522-44.522s20.035-44.522 44.522-44.522h77.913v-555.409c0-1.113 1.113-2.226 1.113-3.339 0-2.226 1.113-3.339 1.113-5.565 0-1.113 1.113-2.226 1.113-4.452 0-1.113 1.113-3.339 1.113-4.452 1.113-1.113 1.113-2.226 2.226-4.452 1.113-1.113 1.113-2.226 2.226-3.339s2.226-3.339 3.339-4.452c1.113-1.113 1.113-1.113 2.226-2.226 0 0 0 0 0 0 2.226-2.226 4.452-3.339 6.678-5.565 1.113 0 1.113-1.113 2.226-1.113 2.226-1.113 4.452-2.226 6.678-3.339 1.113 0 2.226-1.113 4.452-1.113 1.113 0 3.339-1.113 4.452-1.113 3.339-1.113 5.565-1.113 8.904-1.113 0 0 0 0 0 0h575.443v-77.913c0-24.487 20.035-44.522 44.522-44.522s44.522 20.035 44.522 44.522v77.913h77.913c24.487 0 44.522 20.035 44.522 44.522s-20.035 44.522-44.522 44.522h-77.913v540.939l131.339 129.113zM701.217 692.87l-467.478-450.783v450.783h467.478zM768 180.87h-467.478l467.478 454.122v-454.122z" />
<glyph unicode="&#xe93d;" glyph-name="cross" d="M786.922 244.313c20.035-20.035 20.035-51.2 0-71.235-10.017-10.017-22.261-14.47-35.617-14.47s-25.6 4.452-35.617 14.47l-203.687 203.687-203.687-203.687c-10.017-10.017-22.261-14.47-35.617-14.47s-25.6 4.452-35.617 14.47c-20.035 20.035-20.035 51.2 0 71.235l203.687 203.687-203.687 203.687c-20.035 20.035-20.035 51.2 0 71.235s51.2 20.035 71.235 0l203.687-203.687 203.687 203.687c20.035 20.035 51.2 20.035 71.235 0s20.035-51.2 0-71.235l-203.687-203.687 203.687-203.687z" />
<glyph unicode="&#xe93e;" glyph-name="crosshair" d="M513.113 960c0 0 0 0 0 0-1.113 0-1.113 0 0 0-1.113 0-1.113 0 0 0-283.826 0-513.113-229.287-513.113-512 0-281.6 229.287-512 510.887-512 0 0 0 0 0 0s0 0 0 0 0 0 0 0c282.713 0 512 229.287 512 512 1.113 281.6-228.174 512-509.774 512zM556.522 27.27v114.643c0 24.487-20.035 44.522-44.522 44.522s-44.522-20.035-44.522-44.522v-114.643c-200.348 21.148-355.061 179.2-376.209 376.209h114.643c24.487 0 44.522 20.035 44.522 44.522s-20.035 44.522-44.522 44.522h-114.643c21.148 198.122 175.861 355.061 376.209 376.209v-114.643c0-24.487 20.035-44.522 44.522-44.522s44.522 20.035 44.522 44.522v114.643c200.348-21.148 355.061-178.087 376.209-376.209h-114.643c-24.487 0-44.522-20.035-44.522-44.522s20.035-44.522 44.522-44.522h114.643c-21.148-198.122-175.861-355.061-376.209-376.209z" />
<glyph unicode="&#xe93f;" glyph-name="cutlery" d="M921.6 56.209c17.809-17.809 17.809-45.635 0-63.443-8.904-7.791-20.035-12.243-31.165-12.243s-22.261 4.452-31.165 13.357l-353.948 353.948-349.496-353.948c-8.904-8.904-20.035-13.357-31.165-13.357s-22.261 4.452-31.165 13.357c-17.809 17.809-17.809 45.635 0 63.443l349.496 353.948-60.104 58.991-8.904-8.904c-27.826-27.826-65.67-43.409-105.739-43.409s-77.913 15.583-105.739 43.409l-149.148 145.809c-17.809 17.809-17.809 45.635 0 63.443s45.635 17.809 63.443 0l148.035-146.922c11.13-11.13 26.713-17.809 43.409-17.809s31.165 6.678 43.409 17.809l10.017 10.017-192.557 189.217c-17.809 17.809-17.809 45.635 0 63.443s45.635 17.809 63.443 0l190.33-190.33 11.13 11.13c23.374 23.374 23.374 62.33 0 86.817l-148.035 145.809c-17.809 17.809-17.809 45.635 0 63.443s45.635 17.809 63.443 0l146.922-146.922c58.991-58.991 58.991-153.6 0-212.591l-11.13-11.13 58.991-58.991 392.904 398.47c7.791 8.904 20.035 13.357 31.165 13.357s23.374-4.452 31.165-13.357c99.061-99.061 82.365-238.191-42.296-362.852l-150.261-150.261c-17.809-17.809-45.635-17.809-63.443 0s-17.809 45.635 0 63.443l150.261 150.261c90.157 90.157 87.93 158.052 69.009 199.235l-355.061-360.626 353.948-355.061z" />
<glyph unicode="&#xe940;" glyph-name="device-desktop" d="M939.409 882.087h-854.817c-46.748 0-84.591-37.843-84.591-84.591v-493.078c0-46.748 37.843-90.157 84.591-90.157h282.713v-45.635l-84.591-67.896c-15.583-12.243-22.261-35.617-15.583-53.426s23.374-33.391 42.296-33.391h400.696c18.922 0 36.73 15.583 43.409 33.391s1.113 40.070-13.357 52.313l-83.478 69.009v45.635h282.713c46.748 0 84.591 43.409 84.591 90.157v493.078c0 46.748-37.843 84.591-84.591 84.591zM592.139 116.313l26.713-24.487h-218.157l28.939 25.6c8.904 7.791 15.583 21.148 15.583 33.391v63.443h133.565v-64.557c0-11.13 4.452-25.6 13.357-33.391zM934.957 303.304h-845.913v489.739h845.913v-489.739z" />
<glyph unicode="&#xe941;" glyph-name="device-mobile" d="M587.687 114.087c0-18.922-14.47-33.391-33.391-33.391h-85.704c-18.922 0-33.391 14.47-33.391 33.391s14.47 33.391 33.391 33.391h85.704c18.922 0 33.391-14.47 33.391-33.391zM801.391 875.409v-854.817c0-46.748-37.843-84.591-84.591-84.591h-409.6c-46.748 0-84.591 37.843-84.591 84.591v854.817c0 46.748 37.843 84.591 84.591 84.591h409.6c46.748 0 84.591-37.843 84.591-84.591zM311.652 870.957v-589.913h400.696v589.913h-400.696zM712.348 25.043v189.217h-400.696v-189.217h400.696z" />
<glyph unicode="&#xe942;" glyph-name="device-tablet" d="M574.33 102.957c0-18.922-14.47-33.391-33.391-33.391h-57.878c-18.922 0-33.391 14.47-33.391 33.391s14.47 33.391 33.391 33.391h57.878c18.922 0 33.391-14.47 33.391-33.391zM923.826 875.409v-854.817c0-46.748-37.843-84.591-84.591-84.591h-654.47c-46.748 0-84.591 37.843-84.591 84.591v854.817c0 46.748 37.843 84.591 84.591 84.591h654.47c46.748 0 84.591-37.843 84.591-84.591zM189.217 870.957v-612.174h645.565v612.174h-645.565zM834.783 25.043v166.957h-645.565v-166.957h645.565z" />
<glyph unicode="&#xe943;" glyph-name="direction" d="M555.409-19.478c-2.226 0-4.452 0-6.678 1.113-20.035 3.339-35.617 18.922-36.73 38.957l-38.957 387.339-388.452 38.957c-20.035 2.226-36.73 17.809-38.957 36.73-3.339 20.035 7.791 38.957 25.6 47.861l845.913 379.548c16.696 7.791 36.73 4.452 50.087-8.904s16.696-33.391 8.904-50.087l-379.548-845.913c-7.791-15.583-24.487-25.6-41.183-25.6zM259.339 518.122l257.113-25.6c21.148-2.226 37.843-18.922 40.070-40.070l26.713-257.113 262.678 586.574-586.574-263.791z" />
<glyph unicode="&#xe944;" glyph-name="disc" d="M512 960c-282.713 0-512-229.287-512-512s229.287-512 512-512 512 229.287 512 512-229.287 512-512 512zM512 870.957c233.739 0 422.957-189.217 422.957-422.957 0-58.991-12.243-115.757-34.504-168.070l-250.435 124.661c15.583 50.087 3.339 106.852-35.617 146.922v0c-40.070 40.070-96.835 51.2-146.922 35.617l-90.157 182.539c-7.791 16.696-27.826 23.374-44.522 15.583s-23.374-27.826-15.583-44.522l92.383-186.991c0 0 0 0-1.113-1.113 0 0-1.113-1.113-1.113-1.113l-252.661 123.548c75.687 117.983 207.026 195.896 357.287 195.896zM464.139 495.861c13.357 13.357 30.052 20.035 47.861 20.035s34.504-6.678 47.861-20.035c26.713-26.713 26.713-69.009 0-95.722s-69.009-26.713-95.722 0c-25.6 26.713-25.6 69.009 0 95.722zM739.061 91.826l-57.878 117.983c-7.791 16.696-27.826 23.374-44.522 15.583s-23.374-27.826-15.583-44.522l58.991-119.096c-51.2-22.261-109.078-35.617-168.070-35.617-233.739-1.113-422.957 188.104-422.957 421.843 0 58.991 12.243 115.757 34.504 168.070l250.435-123.548c-15.583-50.087-3.339-106.852 35.617-146.922 27.826-27.826 65.67-42.296 102.4-42.296s74.574 14.47 102.4 42.296c0 0 1.113 1.113 1.113 1.113l252.661-125.774c-32.278-51.2-76.8-95.722-129.113-129.113zM640 297.739c6.678-6.678 11.13-16.696 11.13-27.826 0-10.017-4.452-20.035-11.13-27.826s-17.809-11.13-27.826-11.13-20.035 4.452-27.826 11.13-11.13 17.809-11.13 27.826 4.452 20.035 11.13 27.826c14.47 14.47 41.183 14.47 55.652 0z" />
<glyph unicode="&#xe945;" glyph-name="document-delete" d="M877.078 676.174l-245.983 248.209c-8.904 8.904-20.035 13.357-32.278 13.357h-420.73c-24.487 0-44.522-20.035-44.522-44.522v-890.435c0-24.487 20.035-44.522 44.522-44.522h667.826c24.487 0 44.522 20.035 44.522 44.522v642.226c0 12.243-4.452 23.374-13.357 31.165zM801.391 626.087h-222.609v222.609h2.226l220.383-222.609zM222.609 47.304v801.391h267.13v-266.017c0-24.487 18.922-45.635 43.409-45.635h268.243v-489.739h-578.783zM640 380.104l-73.461-73.461 73.461-73.461c15.583-15.583 15.583-40.070 0-54.539-7.791-7.791-17.809-11.13-27.826-11.13s-20.035 3.339-27.826 11.13l-72.348 72.348-72.348-73.461c-7.791-7.791-17.809-11.13-27.826-11.13s-20.035 3.339-27.826 11.13c-15.583 15.583-15.583 40.070 0 54.539l73.461 73.461-73.461 73.461c-15.583 15.583-15.583 40.070 0 54.539 15.583 15.583 40.070 15.583 54.539 0l72.348-73.461 72.348 73.461c15.583 15.583 40.070 15.583 54.539 0 17.809-13.357 17.809-37.843 2.226-53.426z" />
<glyph unicode="&#xe946;" glyph-name="document-edit" d="M958.33 857.6l-79.026 81.252c-6.678 6.678-15.583 10.017-24.487 10.017v0c-8.904 0-17.809-3.339-23.374-10.017l-466.365-473.043c-3.339-3.339-5.565-6.678-7.791-11.13l-52.313-132.452c-4.452-12.243-2.226-26.713 7.791-35.617 6.678-6.678 14.47-10.017 23.374-10.017 4.452 0 7.791 1.113 12.243 2.226l131.339 52.313c4.452 2.226 7.791 4.452 11.13 7.791l466.365 473.043c14.47 12.243 14.47 33.391 1.113 45.635zM449.67 390.122l-53.426-21.148 21.148 54.539 437.426 444.104 33.391-33.391-438.539-444.104zM790.261 430.191v-449.67c0-24.487-22.261-44.522-46.748-44.522h-632.209c-24.487 0-44.522 20.035-44.522 44.522v848.139c0 24.487 20.035 42.296 44.522 42.296h463.026c24.487 0 44.522-20.035 44.522-44.522s-20.035-44.522-44.522-44.522h-418.504v-756.87h545.391v405.148c0 24.487 20.035 44.522 44.522 44.522s44.522-20.035 44.522-44.522z" />
<glyph unicode="&#xe947;" glyph-name="document-new" d="M877.078 676.174l-245.983 248.209c-8.904 8.904-20.035 13.357-32.278 13.357h-420.73c-24.487 0-44.522-20.035-44.522-44.522v-890.435c0-24.487 20.035-44.522 44.522-44.522h667.826c24.487 0 44.522 20.035 44.522 44.522v642.226c0 12.243-4.452 23.374-13.357 31.165zM801.391 626.087h-222.609v222.609h2.226l220.383-222.609zM222.609 47.304v801.391h267.13v-266.017c0-24.487 18.922-45.635 43.409-45.635h268.243v-489.739h-578.783z" />
<glyph unicode="&#xe948;" glyph-name="document-remove" d="M877.078 676.174l-245.983 248.209c-8.904 8.904-20.035 13.357-32.278 13.357h-420.73c-24.487 0-44.522-20.035-44.522-44.522v-890.435c0-24.487 20.035-44.522 44.522-44.522h667.826c24.487 0 44.522 20.035 44.522 44.522v642.226c0 12.243-4.452 23.374-13.357 31.165zM801.391 626.087h-222.609v222.609h2.226l220.383-222.609zM222.609 47.304v801.391h267.13v-266.017c0-24.487 18.922-45.635 43.409-45.635h268.243v-489.739h-578.783zM651.13 308.87c0-21.148-17.809-38.957-38.957-38.957h-200.348c-21.148 0-38.957 17.809-38.957 38.957s16.696 38.957 38.957 38.957h200.348c22.261 0 38.957-17.809 38.957-38.957z" />
<glyph unicode="&#xe949;" glyph-name="document" d="M845.913 937.739h-667.826c-24.487 0-44.522-20.035-44.522-44.522v-890.435c0-24.487 20.035-44.522 44.522-44.522h667.826c24.487 0 44.522 20.035 44.522 44.522v890.435c0 24.487-20.035 44.522-44.522 44.522zM801.391 47.304h-578.783v801.391h578.783v-801.391zM328.348 342.261c0 21.148 17.809 38.957 38.957 38.957h131.339c21.148 0 38.957-17.809 38.957-38.957s-17.809-38.957-38.957-38.957h-131.339c-22.261 0-38.957 17.809-38.957 38.957zM333.913 520.348c0 21.148 17.809 38.957 38.957 38.957h264.904c21.148 0 38.957-17.809 38.957-38.957s-16.696-38.957-38.957-38.957h-264.904c-21.148 0-38.957 17.809-38.957 38.957zM333.913 687.304c0 21.148 17.809 38.957 38.957 38.957h264.904c21.148 0 38.957-17.809 38.957-38.957s-16.696-38.957-38.957-38.957h-264.904c-21.148 0-38.957 17.809-38.957 38.957zM664.487 366.748c6.678-6.678 11.13-16.696 11.13-27.826 0-10.017-4.452-20.035-11.13-27.826s-17.809-11.13-27.826-11.13-20.035 4.452-27.826 11.13c-7.791 6.678-11.13 16.696-11.13 27.826 0 10.017 4.452 20.035 11.13 27.826 14.47 14.47 41.183 14.47 55.652 0z" />
<glyph unicode="&#xe94a;" glyph-name="dot" d="M512 370.087c-20.035 0-41.183 8.904-55.652 23.374s-22.261 34.504-22.261 54.539c0 20.035 8.904 40.070 22.261 55.652 14.47 14.47 34.504 22.261 55.652 22.261 20.035 0 40.070-8.904 54.539-22.261 14.47-14.47 23.374-34.504 23.374-55.652 0-20.035-8.904-40.070-23.374-54.539s-34.504-23.374-54.539-23.374z" />
<glyph unicode="&#xe94b;" glyph-name="dots-2" d="M378.435 370.087c-20.035 0-41.183 8.904-55.652 23.374s-22.261 34.504-22.261 54.539c0 20.035 8.904 40.070 22.261 55.652 14.47 14.47 34.504 22.261 55.652 22.261 20.035 0 40.070-8.904 54.539-22.261 14.47-14.47 23.374-34.504 23.374-55.652 0-20.035-8.904-40.070-23.374-54.539s-34.504-23.374-54.539-23.374zM700.104 393.461c14.47 14.47 23.374 34.504 23.374 54.539s-8.904 40.070-23.374 55.652c-14.47 14.47-34.504 22.261-54.539 22.261s-41.183-8.904-55.652-22.261c-14.47-14.47-22.261-34.504-22.261-55.652 0-20.035 8.904-40.070 22.261-54.539 14.47-14.47 34.504-23.374 55.652-23.374 20.035 0 40.070 8.904 54.539 23.374z" />
<glyph unicode="&#xe94c;" glyph-name="dots-3" d="M233.739 370.087c-20.035 0-41.183 8.904-55.652 23.374s-22.261 34.504-22.261 54.539c0 20.035 8.904 40.070 22.261 55.652 14.47 14.47 34.504 22.261 55.652 22.261 20.035 0 40.070-8.904 54.539-22.261 14.47-14.47 23.374-34.504 23.374-55.652 0-20.035-8.904-40.070-23.374-54.539s-34.504-23.374-54.539-23.374zM566.539 393.461c14.47 14.47 23.374 34.504 23.374 54.539s-8.904 40.070-23.374 55.652c-14.47 14.47-34.504 22.261-54.539 22.261s-41.183-8.904-55.652-22.261c-14.47-14.47-22.261-34.504-22.261-55.652 0-20.035 8.904-40.070 22.261-54.539 14.47-14.47 34.504-23.374 55.652-23.374 20.035 0 40.070 8.904 54.539 23.374zM844.8 393.461c14.47 14.47 23.374 34.504 23.374 54.539s-8.904 40.070-23.374 55.652c-14.47 14.47-34.504 22.261-54.539 22.261s-41.183-8.904-55.652-22.261c-14.47-14.47-22.261-34.504-22.261-55.652 0-20.035 8.904-40.070 22.261-54.539 14.47-14.47 34.504-23.374 55.652-23.374 20.035 0 40.070 8.904 54.539 23.374z" />
<glyph unicode="&#xe94d;" glyph-name="download" d="M990.609 305.53v-302.748c0-31.165-24.487-55.652-55.652-55.652h-845.913c-31.165 0-55.652 24.487-55.652 55.652v302.748c0 31.165 24.487 55.652 55.652 55.652s55.652-24.487 55.652-55.652v-247.096h734.609v247.096c0 31.165 24.487 55.652 55.652 55.652s55.652-24.487 55.652-55.652zM471.93 236.522c10.017-11.13 24.487-16.696 40.070-16.696s28.939 5.565 40.070 16.696l221.496 227.061c21.148 22.261 21.148 56.765-1.113 79.026-22.261 21.148-56.765 21.148-79.026-1.113l-125.774-130.226v481.948c0 31.165-24.487 55.652-55.652 55.652s-55.652-24.487-55.652-55.652v-481.948l-126.887 129.113c-21.148 22.261-56.765 22.261-79.026 1.113s-22.261-56.765-1.113-79.026l222.609-225.948z" />
<glyph unicode="&#xe94e;" glyph-name="duplicate" d="M979.478 198.678h-672.278c-24.487 0-44.522 20.035-44.522 44.522v672.278c0 24.487 20.035 44.522 44.522 44.522h672.278c24.487 0 44.522-20.035 44.522-44.522v-671.165c0-25.6-20.035-45.635-44.522-45.635zM351.722 288.835h582.122v581.009h-582.122v-581.009zM739.061-10.574v117.983c0 18.922-15.583 33.391-33.391 33.391s-33.391-15.583-33.391-33.391v-104.626h-604.383v604.383h103.513c18.922 0 33.391 15.583 33.391 33.391s-15.583 33.391-33.391 33.391h-117.983c-28.939 0-53.426-23.374-53.426-53.426v-633.322c0-27.826 23.374-51.2 53.426-51.2h633.322c28.939 0 52.313 23.374 52.313 53.426z" />
<glyph unicode="&#xe94f;" glyph-name="enter" d="M990.609 815.304v-734.609c0-24.487-20.035-44.522-44.522-44.522h-579.896c-24.487 0-43.409 20.035-43.409 44.522v203.687c0 24.487 20.035 44.522 44.522 44.522s44.522-20.035 44.522-44.522v-159.165h489.739v645.565h-489.739v-159.165c0-24.487-20.035-44.522-44.522-44.522s-44.522 20.035-44.522 44.522v203.687c0 24.487 18.922 44.522 43.409 44.522h579.896c24.487 0 44.522-20.035 44.522-44.522zM517.565 304.417c-17.809-17.809-16.696-45.635 0-63.443 8.904-8.904 20.035-13.357 31.165-13.357s23.374 4.452 31.165 13.357l174.748 175.861c16.696 17.809 16.696 45.635 0 62.33l-173.635 178.087c-17.809 17.809-45.635 17.809-63.443 0s-17.809-45.635 0-63.443l99.061-100.174-538.713-1.113c-24.487 0-44.522-20.035-44.522-44.522s20.035-44.522 44.522-44.522c0 0 0 0 0 0l538.713 1.113-99.061-100.174z" />
<glyph unicode="&#xe950;" glyph-name="exit" d="M667.826 284.383v-203.687c0-24.487-17.809-44.522-42.296-44.522h-581.009c-24.487 0-44.522 20.035-44.522 44.522v734.609c0 24.487 20.035 44.522 44.522 44.522h581.009c24.487 0 42.296-20.035 42.296-44.522v-203.687c0-24.487-20.035-44.522-44.522-44.522s-44.522 20.035-44.522 44.522v159.165h-489.739v-645.565h489.739v159.165c0 24.487 20.035 44.522 44.522 44.522s44.522-20.035 44.522-44.522zM1010.643 481.391l-173.635 175.861c-17.809 17.809-45.635 17.809-63.443 0s-17.809-45.635 0-63.443l99.061-100.174-539.826-1.113c-24.487 0-44.522-20.035-44.522-44.522s20.035-44.522 44.522-44.522c0 0 0 0 0 0l539.826 1.113-99.061-100.174c-17.809-17.809-16.696-45.635 0-63.443 8.904-8.904 20.035-13.357 31.165-13.357s23.374 4.452 31.165 13.357l174.748 175.861c17.809 18.922 17.809 46.748 0 64.557z" />
<glyph unicode="&#xe951;" glyph-name="expand-2" d="M1001.739 893.217v-233.739c0-24.487-20.035-44.522-44.522-44.522v0c-24.487 0-44.522 20.035-44.522 44.522v125.774l-281.6-280.487c-8.904-8.904-20.035-13.357-31.165-13.357s-22.261 4.452-31.165 13.357c-17.809 17.809-17.809 45.635 0 63.443l280.487 280.487h-125.774c-24.487 0-44.522 20.035-44.522 44.522s20.035 44.522 44.522 44.522h233.739c12.243 0 23.374-4.452 31.165-13.357 8.904-7.791 13.357-18.922 13.357-31.165zM388.452 386.783l-277.148-276.035v125.774c0 24.487-20.035 44.522-44.522 44.522v0c-24.487 0-44.522-20.035-44.522-44.522v-233.739c0-12.243 4.452-23.374 13.357-31.165 7.791-8.904 18.922-13.357 31.165-13.357h233.739c24.487 0 44.522 20.035 44.522 44.522s-20.035 44.522-44.522 44.522h-125.774l277.148 277.148c17.809 17.809 17.809 45.635 0 63.443-17.809 16.696-46.748 16.696-63.443-1.113z" />
<glyph unicode="&#xe952;" glyph-name="expand" d="M1001.739 893.217v-222.609c0-24.487-20.035-44.522-44.522-44.522v0c-24.487 0-44.522 20.035-44.522 44.522v114.643l-258.226-258.226c-8.904-8.904-20.035-13.357-31.165-13.357s-22.261 4.452-31.165 13.357c-17.809 17.809-17.809 45.635 0 63.443l257.113 258.226h-114.643c-24.487 0-44.522 20.035-44.522 44.522s20.035 44.522 44.522 44.522h222.609c12.243 0 23.374-4.452 31.165-13.357 8.904-7.791 13.357-18.922 13.357-31.165zM957.217 269.913c-24.487 0-44.522-20.035-44.522-44.522v-114.643l-253.774 251.548c-17.809 17.809-46.748 17.809-64.557 0s-17.809-45.635-1.113-63.443l251.548-251.548h-114.643c0 0 0 0 0 0-24.487 0-44.522-20.035-44.522-44.522s20.035-44.522 44.522-44.522h222.609c12.243 0 25.6 4.452 33.391 13.357 8.904 8.904 15.583 20.035 15.583 31.165v222.609c0 24.487-20.035 44.522-44.522 44.522zM365.078 364.522l-253.774-253.774v114.643c0 24.487-20.035 44.522-44.522 44.522v0c-24.487 0-44.522-20.035-44.522-44.522v-222.609c0-12.243 4.452-23.374 13.357-31.165 8.904-8.904 20.035-13.357 32.278-13.357h222.609c24.487 0 44.522 20.035 44.522 44.522s-20.035 44.522-44.522 44.522h-115.757l253.774 253.774c17.809 17.809 16.696 45.635 0 63.443s-45.635 17.809-63.443 0zM174.748 844.243h114.643c24.487 0 44.522 20.035 44.522 44.522s-20.035 44.522-44.522 44.522h-222.609c-12.243 0-23.374-4.452-31.165-13.357-8.904-7.791-13.357-18.922-13.357-31.165v-222.609c0-24.487 20.035-44.522 44.522-44.522s44.522 20.035 44.522 44.522v115.757l257.113-257.113c8.904-8.904 20.035-13.357 31.165-13.357s22.261 4.452 31.165 13.357c17.809 17.809 17.809 45.635 0 63.443l-256 256z" />
<glyph unicode="&#xe953;" glyph-name="experiment" d="M997.287 914.365c-7.791 14.47-23.374 23.374-38.957 23.374h-892.661c-15.583 0-31.165-8.904-38.957-23.374s-4.452-32.278 4.452-45.635l347.27-509.774v-337.252c0-34.504 23.374-63.443 58.991-63.443h149.148c34.504 0 58.991 27.826 58.991 63.443v337.252l347.27 509.774c8.904 13.357 12.243 31.165 4.452 45.635zM566.539 396.8c-5.565-6.678-10.017-15.583-10.017-24.487v-325.009h-89.043v325.009c0 8.904-4.452 17.809-10.017 24.487l-105.739 154.713c22.261 6.678 48.974 13.357 77.913 12.243 34.504 0 57.878-6.678 83.478-13.357 26.713-6.678 53.426-13.357 91.27-14.47 22.261 0 42.296 1.113 60.104 3.339l-97.948-142.47zM729.043 634.991c0 0 0 0 0 0-1.113 0-47.861-21.148-124.661-20.035-27.826 0-48.974 5.565-72.348 12.243-26.713 6.678-57.878 14.47-102.4 15.583-50.087 0-94.609-12.243-124.661-23.374l-154.713 229.287h724.591l-145.809-213.704zM637.774 708.452c-7.791 7.791-13.357 20.035-13.357 31.165 0 12.243 4.452 23.374 13.357 31.165 7.791 7.791 20.035 13.357 31.165 13.357 12.243 0 23.374-4.452 31.165-13.357s13.357-20.035 13.357-31.165c0-12.243-4.452-23.374-13.357-31.165s-20.035-13.357-31.165-13.357c-11.13 0-23.374 5.565-31.165 13.357z" />
<glyph unicode="&#xe954;" glyph-name="export" d="M812.522 108.522v-55.652c0-24.487-21.148-38.957-45.635-38.957h-726.817c-24.487 0-40.070 13.357-40.070 38.957v549.843c0 24.487 15.583 46.748 40.070 46.748h130.226c24.487 0 44.522-20.035 44.522-44.522s-20.035-44.522-44.522-44.522h-81.252v-457.461h634.435v5.565c0 24.487 20.035 44.522 44.522 44.522s44.522-20.035 44.522-44.522zM1010.643 523.687l-276.035-281.6c-13.357-13.357-32.278-16.696-48.974-10.017-17.809 7.791-28.939 23.374-28.939 42.296v121.322c-89.043 2.226-302.748-6.678-380.661-143.583-7.791-14.47-23.374-23.374-38.957-23.374-3.339 0-7.791 0-11.13 1.113-20.035 5.565-33.391 23.374-33.391 43.409 0 6.678 0 179.2 129.113 307.2 81.252 83.478 190.33 128 335.026 135.791v121.322c0 17.809 11.13 34.504 27.826 41.183 17.809 6.678 36.73 3.339 50.087-10.017l277.148-281.6c16.696-17.809 16.696-45.635-1.113-63.443zM914.922 555.965l-169.183 171.409v-54.539c0-24.487-18.922-44.522-44.522-44.522-138.017 0-243.757-36.73-316.104-110.191-33.391-33.391-55.652-70.122-70.122-105.739 104.626 62.33 237.078 73.461 318.33 73.461 42.296 0 70.122-3.339 73.461-3.339 22.261-2.226 38.957-22.261 38.957-44.522v-54.539l169.183 172.522z" />
<glyph unicode="&#xe955;" glyph-name="feed" d="M686.748 45.078c-1.113-33.391-28.939-58.991-61.217-58.991-1.113 0-2.226 0-2.226 0-33.391 1.113-60.104 30.052-58.991 63.443 6.678 158.052-31.165 276.035-112.417 352.835-129.113 121.322-331.687 101.287-333.913 101.287-33.391-3.339-63.443 21.148-67.896 54.539-3.339 33.391 20.035 63.443 54.539 67.896 10.017 1.113 259.339 26.713 430.748-132.452 109.078-102.4 159.165-253.774 151.374-448.557zM205.913 282.157c-37.843 0-75.687-15.583-102.4-42.296s-42.296-64.557-42.296-102.4 15.583-75.687 42.296-102.4c26.713-26.713 64.557-42.296 102.4-42.296s75.687 15.583 102.4 42.296c26.713 26.713 42.296 64.557 42.296 102.4s-15.583 75.687-42.296 102.4c-26.713 26.713-64.557 42.296-102.4 42.296zM746.852 712.904c-254.887 237.078-626.643 194.783-643.339 193.67-33.391-4.452-57.878-34.504-53.426-67.896s34.504-57.878 67.896-53.426c3.339 0 331.687 36.73 545.391-161.391 134.678-124.661 197.009-317.217 185.878-573.217-1.113-33.391 24.487-62.33 58.991-63.443 1.113 0 2.226 0 2.226 0 32.278 0 60.104 25.6 61.217 58.991 13.357 291.617-62.33 516.452-224.835 666.713z" />
<glyph unicode="&#xe956;" glyph-name="flag" d="M966.122 958.887c-21.148 4.452-42.296-6.678-50.087-26.713-12.243-27.826-130.226-150.261-231.513-154.713-57.878-2.226-111.304 37.843-168.070 80.139-73.461 53.426-154.713 113.53-259.339 93.496-154.713-28.939-227.061-168.070-230.4-174.748-4.452-8.904-5.565-20.035-3.339-30.052l44.522-199.235c0 0 0 0 0 0l130.226-577.67c4.452-21.148 23.374-34.504 43.409-34.504 3.339 0 6.678 0 10.017 1.113 24.487 5.565 38.957 28.939 33.391 53.426l-75.687 337.252c20.035 31.165 76.8 107.965 165.843 128 53.426 12.243 95.722-2.226 144.696-17.809 54.539-17.809 116.87-38.957 197.009-21.148 168.070 38.957 281.6 239.304 284.939 499.757 0 21.148-14.47 38.957-35.617 43.409zM696.765 502.539c-55.652-12.243-99.061 2.226-149.148 18.922-54.539 17.809-115.757 38.957-192.557 21.148-75.687-16.696-132.452-61.217-171.409-103.513l-4.452 20.035-65.67 289.391c18.922 28.939 71.235 97.948 159.165 114.643 66.783 12.243 123.548-28.939 189.217-77.913 63.443-46.748 136.904-100.174 224.835-96.835 74.574 3.339 151.374 46.748 211.478 95.722-25.6-133.565-91.27-256-201.461-281.6z" />
<glyph unicode="&#xe957;" glyph-name="flashlight" d="M476.383 448c0-18.922-14.47-33.391-33.391-33.391h-84.591c-18.922 0-33.391 14.47-33.391 33.391s14.47 33.391 33.391 33.391h84.591c18.922 0 33.391-14.47 33.391-33.391zM1024 707.339v-519.791c0-34.504-27.826-63.443-63.443-63.443h-106.852c-182.539 1.113-292.73 101.287-330.574 145.809h-459.687c-34.504 0-63.443 28.939-63.443 63.443v230.4c0 35.617 28.939 62.33 63.443 62.33h458.574c37.843 44.522 148.035 144.696 331.687 144.696h106.852c35.617 0 63.443-27.826 63.443-63.443zM89.043 358.957h77.913v178.087h-77.913v-178.087zM790.261 218.713v458.574c-133.565-22.261-212.591-120.209-212.591-121.322-8.904-12.243-18.922-18.922-33.391-18.922h-310.539v-178.087h309.426c14.47 0 25.6-6.678 33.391-18.922 3.339-4.452 80.139-99.061 213.704-121.322zM934.957 681.739h-77.913v-467.478h77.913v467.478z" />
<glyph unicode="&#xe958;" glyph-name="folder-open" d="M1013.983 530.365c-8.904 11.13-21.148 17.809-34.504 17.809h-55.652v121.322c0 21.148-15.583 34.504-36.73 34.504h-389.565l-50.087 82.365c-6.678 11.13-20.035 17.809-33.391 17.809h-287.165c-21.148 0-37.843-12.243-37.843-33.391v-222.609h-44.522c-13.357 0-26.713-6.678-34.504-16.696s-12.243-24.487-8.904-37.843l82.365-377.322c4.452-20.035 22.261-35.617 43.409-35.617h760.209c20.035 0 37.843 14.47 43.409 33.391l92.383 378.435c3.339 13.357 0 26.713-8.904 37.843zM166.957 726.261h224.835l50.087-82.365c6.678-11.13 20.035-17.809 33.391-17.809h370.643v-77.913h-678.957v178.087zM851.478 169.739h-688.974l-62.33 289.391h822.539l-71.235-289.391z" />
<glyph unicode="&#xe959;" glyph-name="folder" d="M890.435 704h-384l-48.974 79.026c-7.791 13.357-22.261 21.148-37.843 21.148h-286.052c-24.487 0-44.522-20.035-44.522-44.522v-623.304c0-24.487 20.035-44.522 44.522-44.522h756.87c24.487 0 44.522 20.035 44.522 44.522v522.017c0 24.487-20.035 45.635-44.522 45.635zM845.913 180.87h-667.826v534.261h215.93l48.974-79.026c7.791-13.357 22.261-21.148 37.843-21.148h365.078v-434.087z" />
<glyph unicode="&#xe95a;" glyph-name="forward" d="M144.696 125.217c-3.339 0-7.791 0-11.13 1.113-20.035 5.565-33.391 22.261-33.391 43.409 0 6.678 1.113 176.974 128 303.861 81.252 81.252 192.557 125.774 332.8 133.565v119.096c0 17.809 11.13 34.504 27.826 41.183s35.617 3.339 48.974-10.017l273.809-278.261c16.696-17.809 16.696-45.635 0-62.33l-273.809-278.261c-12.243-13.357-32.278-16.696-48.974-10.017s-27.826 23.374-27.826 41.183v120.209c-89.043 2.226-300.522-6.678-377.322-142.47-7.791-13.357-23.374-22.261-38.957-22.261zM536.487 380.104c41.183 0 70.122-3.339 73.461-3.339 22.261-2.226 40.070-21.148 40.070-44.522v-53.426l166.957 169.183-166.957 169.183v-53.426c0-24.487-20.035-44.522-44.522-44.522-136.904 0-242.643-36.73-313.878-109.078-32.278-32.278-54.539-69.009-70.122-103.513 103.513 62.33 234.852 73.461 314.991 73.461z" />
<glyph unicode="&#xe95b;" glyph-name="gaming" d="M676.73 616.070c8.904-8.904 14.47-22.261 14.47-35.617s-5.565-25.6-14.47-35.617c-8.904-8.904-22.261-14.47-35.617-14.47s-26.713 5.565-35.617 14.47c-8.904 8.904-14.47 22.261-14.47 35.617s5.565 25.6 14.47 35.617c8.904 8.904 22.261 14.47 35.617 14.47s26.713-5.565 35.617-14.47zM754.643 545.948c-13.357 0-25.6-5.565-35.617-14.47-8.904-8.904-14.47-22.261-14.47-35.617s5.565-26.713 14.47-35.617c8.904-8.904 22.261-14.47 35.617-14.47s26.713 5.565 35.617 14.47c8.904 8.904 14.47 22.261 14.47 35.617s-5.565 25.6-14.47 35.617c-8.904 8.904-22.261 14.47-35.617 14.47zM376.209 570.435h-31.165v28.939c0 15.583-12.243 27.826-27.826 27.826s-27.826-12.243-27.826-27.826v-28.939h-28.939c-15.583 0-27.826-12.243-27.826-27.826s12.243-27.826 27.826-27.826h28.939v-28.939c0-15.583 12.243-27.826 27.826-27.826s27.826 12.243 27.826 27.826v28.939h31.165c15.583 0 27.826 12.243 27.826 27.826s-12.243 27.826-27.826 27.826zM1024 224.278c0-47.861-26.713-86.817-69.009-103.513-42.296-15.583-109.078-8.904-169.183 58.991-28.939 33.391-77.913 93.496-104.626 126.887-142.47-33.391-278.261-12.243-337.252 0-26.713-33.391-75.687-93.496-104.626-126.887-43.409-48.974-90.157-66.783-129.113-66.783-15.583 0-28.939 2.226-41.183 6.678-42.296 15.583-69.009 55.652-69.009 103.513 0 131.339 84.591 337.252 111.304 398.47-8.904 31.165-5.565 63.443 11.13 92.383 21.148 36.73 58.991 64.557 92.383 66.783 28.939 2.226 67.896-14.47 93.496-26.713 50.087 8.904 208.139 32.278 407.374 0 24.487 12.243 64.557 28.939 93.496 26.713 32.278-2.226 71.235-30.052 92.383-66.783 16.696-28.939 21.148-61.217 11.13-92.383 26.713-60.104 111.304-266.017 111.304-397.357zM934.957 224.278c0 132.452-110.191 377.322-111.304 379.548-5.565 12.243-5.565 26.713 1.113 38.957 4.452 8.904 4.452 16.696 1.113 24.487-5.565 13.357-18.922 23.374-24.487 25.6-10.017-1.113-36.73-12.243-57.878-23.374-8.904-4.452-18.922-6.678-28.939-4.452-228.174 40.070-402.922 1.113-404.035 0-10.017-2.226-21.148-1.113-31.165 4.452-21.148 11.13-47.861 22.261-57.878 23.374-5.565-3.339-18.922-12.243-24.487-25.6-3.339-8.904-3.339-15.583 1.113-24.487 5.565-12.243 6.678-26.713 1.113-38.957 0-2.226-110.191-247.096-110.191-379.548 0-10.017 4.452-16.696 11.13-20.035 15.583-5.565 43.409 3.339 71.235 34.504 38.957 44.522 119.096 144.696 120.209 145.809 11.13 14.47 30.052 20.035 46.748 14.47 2.226 0 175.861-48.974 346.157 0 4.452 1.113 7.791 2.226 12.243 2.226 13.357 0 26.713-5.565 34.504-16.696 1.113-1.113 81.252-101.287 120.209-145.809 27.826-32.278 55.652-41.183 71.235-34.504 7.791 3.339 12.243 10.017 12.243 20.035z" />
<glyph unicode="&#xe95c;" glyph-name="gear" d="M512 233.183c-117.983 0-214.817 95.722-214.817 214.817 0 117.983 95.722 214.817 214.817 214.817 117.983 0 214.817-95.722 214.817-214.817 0-117.983-96.835-214.817-214.817-214.817zM512 583.791c-74.574 0-135.791-61.217-135.791-135.791s61.217-135.791 135.791-135.791c74.574 0 135.791 61.217 135.791 135.791s-61.217 135.791-135.791 135.791zM512-64h-5.565c-38.957 0-72.348 4.452-74.574 4.452-17.809 2.226-31.165 15.583-34.504 33.391l-11.13 80.139c-24.487 7.791-47.861 17.809-70.122 30.052l-62.33-47.861c-14.47-11.13-33.391-10.017-47.861 0-1.113 1.113-27.826 22.261-55.652 48.974l-4.452 4.452c-27.826 27.826-47.861 54.539-48.974 55.652-11.13 14.47-11.13 33.391 0 47.861l48.974 64.557c-12.243 22.261-21.148 46.748-28.939 71.235l-77.913 11.13c-17.809 2.226-31.165 16.696-33.391 34.504-1.113 1.113-5.565 34.504-5.565 73.461v5.565c0 38.957 4.452 72.348 4.452 74.574 2.226 17.809 15.583 31.165 33.391 34.504l80.139 11.13c7.791 24.487 17.809 47.861 30.052 70.122l-47.861 62.33c-11.13 14.47-10.017 33.391 0 47.861 1.113 1.113 22.261 27.826 48.974 55.652l4.452 4.452c27.826 27.826 54.539 47.861 55.652 48.974 14.47 11.13 33.391 11.13 47.861 0l64.557-48.974c22.261 12.243 46.748 21.148 71.235 28.939l11.13 77.913c2.226 17.809 16.696 31.165 34.504 33.391 1.113 1.113 34.504 5.565 73.461 5.565h5.565c38.957 0 72.348-4.452 74.574-4.452 17.809-2.226 31.165-15.583 34.504-33.391l11.13-80.139c24.487-7.791 47.861-17.809 70.122-30.052l62.33 47.861c14.47 11.13 33.391 10.017 47.861 0 1.113-1.113 27.826-22.261 55.652-48.974l4.452-4.452c27.826-27.826 47.861-54.539 48.974-55.652 11.13-14.47 11.13-33.391 0-47.861l-47.861-64.557c12.243-22.261 21.148-46.748 28.939-71.235l77.913-11.13c17.809-2.226 31.165-16.696 33.391-34.504 0-1.113 4.452-35.617 4.452-74.574v-5.565c0-38.957-4.452-72.348-4.452-74.574-2.226-17.809-15.583-31.165-33.391-34.504l-80.139-11.13c-7.791-24.487-17.809-47.861-30.052-70.122l47.861-63.443c11.13-14.47 10.017-33.391 0-47.861-1.113-1.113-22.261-27.826-48.974-55.652l-4.452-4.452c-27.826-27.826-54.539-47.861-55.652-48.974-14.47-11.13-33.391-11.13-47.861 0l-64.557 50.087c-22.261-12.243-46.748-21.148-71.235-28.939l-11.13-77.913c-2.226-17.809-16.696-31.165-34.504-33.391-1.113 0-34.504-4.452-73.461-4.452zM471.93 16.139c10.017-1.113 22.261-1.113 34.504-1.113h5.565c12.243 0 24.487 0 34.504 1.113l10.017 73.461c2.226 16.696 14.47 28.939 30.052 33.391 34.504 7.791 67.896 21.148 97.948 40.070 8.904 5.565 20.035 6.678 30.052 4.452 5.565-1.113 11.13-4.452 15.583-7.791l58.991-44.522c7.791 6.678 16.696 14.47 25.6 23.374l4.452 4.452c8.904 8.904 16.696 17.809 23.374 25.6l-44.522 58.991c-10.017 13.357-10.017 31.165-2.226 44.522 18.922 28.939 32.278 61.217 40.070 94.609 3.339 16.696 16.696 30.052 33.391 32.278l74.574 10.017c1.113 10.017 1.113 22.261 1.113 34.504v4.452c0 12.243 0 24.487-1.113 34.504l-73.461 10.017c-15.583 2.226-28.939 14.47-33.391 30.052-7.791 34.504-21.148 66.783-38.957 96.835-2.226 2.226-3.339 5.565-4.452 8.904-4.452 12.243-2.226 26.713 5.565 36.73l45.635 60.104c-6.678 7.791-14.47 16.696-23.374 25.6l-4.452 4.452c-8.904 8.904-17.809 16.696-25.6 23.374l-58.991-44.522c-14.47-10.017-33.391-10.017-46.748 0-28.939 17.809-61.217 31.165-94.609 40.070-15.583 3.339-27.826 16.696-30.052 33.391l-10.017 74.574c-10.017 1.113-22.261 1.113-34.504 1.113h-4.452c-12.243 0-24.487 0-34.504-1.113l-10.017-75.687c-2.226-17.809-15.583-31.165-33.391-33.391-33.391-7.791-65.67-21.148-94.609-38.957-8.904-5.565-20.035-6.678-30.052-4.452-5.565 1.113-11.13 4.452-15.583 7.791l-57.878 44.522c-7.791-6.678-16.696-14.47-25.6-23.374l-4.452-4.452c-8.904-8.904-16.696-17.809-23.374-25.6l44.522-58.991c10.017-13.357 10.017-30.052 2.226-44.522-1.113-1.113-1.113-2.226-2.226-3.339-17.809-28.939-31.165-61.217-38.957-94.609-3.339-15.583-16.696-27.826-33.391-30.052l-74.574-10.017c-1.113-10.017-1.113-22.261-1.113-34.504v-4.452c0-12.243 0-24.487 1.113-34.504l73.461-10.017c17.809-2.226 31.165-15.583 33.391-33.391 0 0 0-1.113 0-1.113 7.791-33.391 21.148-64.557 38.957-93.496 5.565-10.017 7.791-22.261 3.339-33.391-1.113-4.452-4.452-8.904-7.791-13.357l-43.409-57.878c6.678-7.791 14.47-16.696 23.374-25.6l4.452-4.452c8.904-8.904 17.809-16.696 25.6-23.374l58.991 44.522c14.47 11.13 35.617 10.017 48.974-1.113 28.939-17.809 60.104-30.052 92.383-38.957 15.583-3.339 27.826-16.696 30.052-33.391l10.017-72.348z" />
<glyph unicode="&#xe95d;" glyph-name="graduation" d="M997.287 609.391l-467.478 210.365c-12.243 5.565-25.6 5.565-36.73 0l-467.478-210.365c-14.47-7.791-25.6-22.261-25.6-40.070 0-16.696 11.13-32.278 26.713-40.070l40.070-18.922v-155.826c0-15.583 12.243-27.826 27.826-27.826s27.826 12.243 27.826 27.826v126.887l66.783-35.617v-189.217c0-7.791 2.226-14.47 6.678-21.148s105.739-158.052 310.539-158.052c210.365 0 307.2 152.487 311.652 158.052 3.339 5.565 6.678 13.357 6.678 20.035v184.765l176.974 90.157c15.583 7.791 24.487 23.374 24.487 40.070-2.226 16.696-13.357 31.165-28.939 38.957zM745.739 268.8c-22.261-26.713-97.948-113.53-239.304-113.53-138.017 0-217.043 85.704-239.304 113.53v138.017l224.835-114.643c6.678-3.339 13.357-4.452 20.035-4.452s14.47 1.113 21.148 4.452l212.591 107.965v-131.339zM512 381.217l-365.078 184.765 365.078 164.73 365.078-164.73-365.078-184.765zM122.435 288.835c7.791-7.791 13.357-20.035 13.357-31.165s-4.452-23.374-13.357-31.165c-7.791-7.791-20.035-13.357-31.165-13.357s-23.374 4.452-31.165 13.357c-7.791 7.791-13.357 20.035-13.357 31.165s4.452 23.374 13.357 31.165c7.791 7.791 20.035 13.357 31.165 13.357s22.261-4.452 31.165-13.357z" />
<glyph unicode="&#xe95e;" glyph-name="graph-bar" d="M812.522-30.609c-36.73 0-66.783 30.052-66.783 66.783v823.652c0 36.73 30.052 66.783 66.783 66.783s66.783-30.052 66.783-66.783v-823.652c0-36.73-30.052-66.783-66.783-66.783zM578.783 36.174v552.070c0 36.73-30.052 66.783-66.783 66.783s-66.783-30.052-66.783-66.783v-552.070c0-36.73 30.052-66.783 66.783-66.783s66.783 30.052 66.783 66.783zM278.261 36.174v280.487c0 36.73-30.052 66.783-66.783 66.783s-66.783-30.052-66.783-66.783v-280.487c0-36.73 30.052-66.783 66.783-66.783s66.783 30.052 66.783 66.783z" />
<glyph unicode="&#xe95f;" glyph-name="graph-line" d="M66.783 47.304c-10.017 0-20.035 2.226-28.939 7.791-26.713 15.583-34.504 50.087-18.922 76.8l135.791 227.061c10.017 15.583 26.713 26.713 45.635 26.713 18.922 1.113 36.73-7.791 47.861-23.374l57.878-80.139 122.435 209.252c8.904 15.583 26.713 26.713 44.522 27.826 18.922 1.113 36.73-7.791 47.861-22.261l106.852-143.583 281.6 467.478c15.583 26.713 50.087 34.504 76.8 18.922s34.504-50.087 18.922-76.8l-323.896-537.6c-10.017-15.583-26.713-25.6-44.522-26.713-18.922-1.113-36.73 7.791-47.861 22.261l-106.852 142.47-123.548-209.252c-10.017-16.696-26.713-26.713-45.635-27.826s-36.73 7.791-47.861 23.374l-57.878 80.139-92.383-154.713c-10.017-17.809-28.939-27.826-47.861-27.826z" />
<glyph unicode="&#xe960;" glyph-name="graph-pie" d="M373.983 545.948h-335.026c-21.148 0-38.957 17.809-38.957 38.957 0 207.026 168.070 375.096 373.983 375.096 21.148 0 38.957-17.809 38.957-38.957v-335.026c1.113-22.261-16.696-40.070-38.957-40.070zM81.252 624.974h254.887v253.774c-132.452-16.696-238.191-122.435-254.887-253.774zM546.504-64c-263.791 0-477.496 204.8-477.496 457.461 0 24.487 20.035 44.522 44.522 44.522h408.487v408.487c0 24.487 20.035 44.522 44.522 44.522 248.209 0 457.461-218.157 457.461-477.496 0-262.678-214.817-477.496-477.496-477.496zM161.391 348.939c23.374-182.539 186.991-323.896 385.113-323.896 213.704 0 388.452 174.748 388.452 388.452 0 194.783-144.696 361.739-323.896 385.113v-405.148c0-24.487-20.035-44.522-44.522-44.522h-405.148z" />
<glyph unicode="&#xe961;" glyph-name="headset" d="M990.609 483.617l-1.113-281.6c0-24.487-20.035-43.409-44.522-43.409 0 0 0 0 0 0-24.487 0-44.522 18.922-44.522 43.409l1.113 281.6c0 103.513-40.070 200.348-113.53 273.809-73.461 72.348-170.296 113.53-274.922 113.53 0 0-1.113 0-1.113 0-213.704 0-388.452-172.522-389.565-385.113v-282.713c0-24.487-20.035-44.522-44.522-44.522 0 0 0 0 0 0-24.487 0-44.522 20.035-44.522 44.522l1.113 282.713c0 261.565 214.817 474.157 477.496 474.157 0 0 1.113 0 1.113 0 128 0 248.209-50.087 337.252-140.243 91.27-90.157 140.243-209.252 140.243-336.139zM407.374 460.243c7.791-7.791 11.13-15.583 11.13-25.6l-1.113-450.783c0-21.148-17.809-36.73-38.957-36.73 0 0 0 0 0 0-146.922 0-194.783 84.591-200.348 131.339 0 1.113 0 0 0 2.226v253.774c0 1.113 0 2.226 0 4.452 5.565 45.635 54.539 131.339 200.348 131.339 0 0 1.113 0 1.113 0 10.017 0 20.035-2.226 27.826-10.017zM340.591 391.235c-70.122-11.13-82.365-52.313-84.591-60.104l-1.113-248.209c2.226-8.904 14.47-48.974 84.591-60.104l1.113 368.417zM847.026 334.47l1.113-252.661c0-1.113 0-2.226 0-3.339-5.565-45.635-53.426-131.339-200.348-131.339 0 0 0 0 0 0-21.148 0-38.957 14.47-38.957 36.73l-1.113 448.557c0 10.017 4.452 20.035 11.13 26.713 7.791 7.791 16.696 11.13 27.826 11.13 0 0 1.113 0 1.113 0 145.809 0 194.783-85.704 200.348-132.452-1.113-1.113-1.113-1.113-1.113-3.339zM770.226 82.922l-1.113 248.209c-2.226 8.904-14.47 48.974-84.591 60.104l1.113-368.417c71.235 12.243 82.365 52.313 84.591 60.104z" />
<glyph unicode="&#xe962;" glyph-name="heart" d="M965.009 715.13c-44.522 101.287-141.357 166.957-243.757 166.957-103.513 0-170.296-45.635-209.252-94.609-38.957 48.974-105.739 94.609-209.252 94.609-102.4 0-199.235-65.67-243.757-166.957-47.861-105.739-27.826-222.609 54.539-313.878 194.783-219.27 367.304-373.983 369.53-375.096 8.904-7.791 18.922-11.13 30.052-11.13s21.148 3.339 30.052 11.13c2.226 1.113 173.635 156.939 369.53 375.096 80.139 91.27 100.174 208.139 52.313 313.878zM844.8 460.243c-144.696-161.391-276.035-288.278-332.8-341.704-56.765 53.426-188.104 179.2-332.8 341.704-57.878 65.67-72.348 144.696-40.070 219.27 31.165 67.896 96.835 113.53 163.617 113.53 132.452 0 162.504-99.061 165.843-111.304 4.452-20.035 22.261-33.391 42.296-33.391 0 0 0 0 0 0 20.035 0 37.843 14.47 43.409 33.391 3.339 11.13 33.391 111.304 165.843 111.304 66.783 0 132.452-45.635 163.617-114.643 33.391-73.461 18.922-152.487-38.957-218.157zM833.67 589.357c1.113-21.148-14.47-40.070-36.73-41.183-1.113 0-2.226 0-2.226 0-20.035 0-37.843 15.583-38.957 36.73-4.452 63.443-45.635 73.461-53.426 74.574-21.148 3.339-35.617 22.261-33.391 43.409 3.339 21.148 23.374 35.617 44.522 33.391 38.957-5.565 113.53-43.409 120.209-146.922zM780.243 524.8c7.791-8.904 13.357-20.035 13.357-31.165 0-12.243-4.452-23.374-13.357-31.165-7.791-8.904-20.035-13.357-31.165-13.357s-23.374 4.452-31.165 13.357c-7.791 7.791-13.357 20.035-13.357 31.165s4.452 23.374 13.357 31.165c7.791 7.791 20.035 13.357 31.165 13.357 11.13-1.113 22.261-5.565 31.165-13.357z" />
<glyph unicode="&#xe963;" glyph-name="help" d="M873.739 809.739c-96.835 96.835-224.835 150.261-361.739 150.261 0 0 0 0 0 0-136.904 0-264.904-53.426-361.739-150.261s-150.261-224.835-150.261-361.739 53.426-264.904 150.261-361.739c96.835-96.835 224.835-150.261 361.739-150.261s264.904 53.426 361.739 150.261c96.835 96.835 150.261 224.835 150.261 361.739s-53.426 264.904-150.261 361.739zM773.565 510.33l152.487 23.374c5.565-27.826 8.904-56.765 8.904-85.704s-3.339-57.878-8.904-85.704l-152.487 23.374c8.904 41.183 8.904 83.478 0 124.661zM907.13 599.374l-158.052-24.487c-12.243 23.374-27.826 44.522-46.748 63.443s-41.183 35.617-63.443 46.748l24.487 158.052c54.539-21.148 105.739-53.426 148.035-95.722 42.296-43.409 74.574-93.496 95.722-148.035zM512 267.687c-47.861 0-93.496 18.922-126.887 52.313-34.504 34.504-52.313 79.026-52.313 126.887s18.922 93.496 52.313 126.887c35.617 35.617 81.252 52.313 126.887 52.313s92.383-17.809 126.887-52.313c34.504-34.504 52.313-79.026 52.313-126.887s-18.922-93.496-52.313-126.887c-33.391-33.391-79.026-52.313-126.887-52.313zM512 870.957c28.939 0 57.878-3.339 85.704-8.904l-23.374-152.487c-41.183 10.017-83.478 10.017-124.661 0l-23.374 152.487c27.826 5.565 56.765 8.904 85.704 8.904zM212.591 747.409c42.296 42.296 93.496 75.687 148.035 95.722l24.487-158.052c-23.374-12.243-44.522-27.826-63.443-46.748s-34.504-41.183-47.861-63.443l-158.052 24.487c22.261 54.539 54.539 104.626 96.835 148.035zM89.043 448c0 28.939 3.339 57.878 8.904 85.704l152.487-23.374c-4.452-20.035-7.791-41.183-7.791-62.33s2.226-42.296 7.791-62.33l-152.487-23.374c-5.565 27.826-8.904 56.765-8.904 85.704zM116.87 296.626l158.052 24.487c12.243-23.374 27.826-44.522 47.861-63.443 18.922-18.922 41.183-34.504 63.443-47.861l-24.487-158.052c-54.539 21.148-105.739 53.426-148.035 95.722-43.409 44.522-75.687 94.609-96.835 149.148zM512 25.043c-28.939 0-57.878 3.339-85.704 8.904l23.374 152.487c20.035-4.452 41.183-7.791 62.33-7.791v0c21.148 0 42.296 2.226 62.33 7.791l23.374-152.487c-27.826-5.565-56.765-8.904-85.704-8.904zM811.409 148.591c-42.296-42.296-93.496-75.687-148.035-95.722l-24.487 158.052c23.374 12.243 44.522 27.826 63.443 47.861 18.922 18.922 35.617 41.183 46.748 63.443l158.052-24.487c-21.148-55.652-53.426-105.739-95.722-149.148z" />
<glyph unicode="&#xe964;" glyph-name="home" d="M979.478 414.609c-11.13 0-22.261 4.452-31.165 12.243l-436.313 426.296-436.313-426.296c-17.809-16.696-45.635-16.696-63.443 1.113-16.696 17.809-16.696 45.635 1.113 63.443l467.478 456.348c17.809 16.696 44.522 16.696 62.33 0l467.478-456.348c17.809-16.696 17.809-45.635 1.113-63.443-8.904-8.904-21.148-13.357-32.278-13.357zM881.53-19.478v435.2c0 24.487-20.035 44.522-44.522 44.522s-44.522-20.035-44.522-44.522v-390.678h-139.13v238.191c0 32.278-26.713 58.991-58.991 58.991h-164.73c-32.278 0-58.991-26.713-58.991-58.991v-238.191h-139.13v390.678c0 24.487-20.035 44.522-44.522 44.522s-44.522-20.035-44.522-44.522v-435.2c0-24.487 20.035-44.522 44.522-44.522h228.174c24.487 0 44.522 20.035 44.522 44.522v252.661h105.739v-252.661c0-24.487 20.035-44.522 44.522-44.522h228.174c24.487 0 43.409 20.035 43.409 44.522z" />
<glyph unicode="&#xe965;" glyph-name="hourglass" d="M868.174 47.304h-44.522v116.87c0 64.557-64.557 119.096-126.887 172.522-21.148 17.809-51.2 44.522-62.33 57.878v107.965c11.13 12.243 41.183 40.070 62.33 57.878 62.33 52.313 126.887 106.852 126.887 171.409v116.87h44.522c24.487 0 44.522 20.035 44.522 44.522s-20.035 44.522-44.522 44.522h-712.348c-24.487 0-44.522-20.035-44.522-44.522s20.035-44.522 44.522-44.522h44.522v-116.87c0-64.557 64.557-119.096 126.887-172.522 21.148-17.809 51.2-45.635 62.33-57.878v-107.965c-11.13-12.243-41.183-40.070-62.33-57.878-62.33-52.313-126.887-106.852-126.887-171.409v-116.87h-44.522c-24.487 0-44.522-20.035-44.522-44.522s20.035-44.522 44.522-44.522h712.348c24.487 0 44.522 20.035 44.522 44.522s-20.035 44.522-44.522 44.522zM289.391 164.174c0 23.374 62.33 76.8 95.722 104.626 53.426 45.635 93.496 79.026 93.496 120.209v117.983c0 42.296-40.070 75.687-93.496 121.322-33.391 27.826-95.722 80.139-95.722 104.626v115.757h445.217v-116.87c0-23.374-62.33-76.8-95.722-104.626-53.426-45.635-93.496-79.026-93.496-120.209v-116.87c0-42.296 40.070-75.687 93.496-121.322 33.391-27.826 95.722-80.139 95.722-104.626v-116.87h-445.217v116.87zM612.174 748.522v22.261c0 21.148 17.809 38.957 38.957 38.957s38.957-16.696 38.957-38.957v-22.261c0-21.148-17.809-38.957-38.957-38.957s-38.957 17.809-38.957 38.957z" />
<glyph unicode="&#xe966;" glyph-name="inbox" d="M1024 523.687c0 1.113 0 3.339 0 4.452s0 2.226-1.113 4.452c0 1.113-1.113 3.339-1.113 4.452s-1.113 2.226-1.113 4.452c-1.113 1.113-1.113 2.226-2.226 3.339s-2.226 2.226-2.226 4.452c0 0-1.113 1.113-1.113 1.113l-240.417 292.73c-8.904 11.13-21.148 16.696-34.504 16.696h-456.348c-13.357 0-25.6-5.565-34.504-16.696l-239.304-292.73c0 0-1.113-1.113-1.113-1.113-1.113-1.113-2.226-2.226-2.226-4.452-1.113-1.113-1.113-2.226-2.226-3.339s-1.113-2.226-1.113-4.452c0-1.113-1.113-2.226-1.113-4.452 0-1.113-1.113-2.226-1.113-4.452 0-1.113 0-3.339 0-4.452s0-1.113 0-2.226v-398.47c-1.113-47.861 38.957-86.817 87.93-86.817h845.913c48.974 0 89.043 38.957 89.043 87.93v398.47c0 0 0 1.113 0 1.113zM304.974 770.783h412.939l166.957-200.348h-146.922c-12.243 0-24.487-7.791-33.391-16.696l-101.287-116.87h-182.539l-101.287 116.87c-8.904 10.017-20.035 16.696-33.391 16.696h-148.035l166.957 200.348zM934.957 125.217h-845.913v356.174h176.974l96.835-111.304c11.13-13.357 27.826-22.261 45.635-22.261h207.026c17.809 0 33.391 10.017 45.635 22.261l96.835 111.304h176.974v-356.174z" />
</font>
</defs>
</svg>
